новый адрес
Мега распродажа FORZA HORIZON 4 ULTIMATE+ВСЕ DLC+ОНЛАЙН всего за 499р. 349 руб. (супер цена). Внимание количество ограничено!!!

iTunes

1+1

iTunes

мы

iTunes

1

iTunes

Чернобыль

iTunes

Ральф против интернета

Лицензия

ПШазам

Лицензия

Игра престолов

Лицензия

30
pack

ВАЖНО

!!Акция!!

Alien_RageХит недели

RePack

Resident Evil 21

ИГРА 18+

pack

RePack

Metro:Exodus

!!Акция!!

Alien_Rage

RePack

fifa19

RePack

Assassins Creed: Odyssey

RePack

NEED FOR SPEED™ PAYBACK

3 сезон

9 сезон

Бесстыжие 9 сезон

Все сериалы

все сериалы на PB.wtf

RePack

FAR CRY 5
Ребята, катастрофически не хватает 1900р. для оплаты серверов за Октябрь (всвязи с блокировками трафик упал в 3 раза), 1-2р., выручайте.
  

Море зовет (Владимир Браун) [1955, СССР, драма, SATRip от AVP Studio] pb.wtf

Море зовет через торрент pb.wtf

Размер: 1.46 GB | Добавлен: 2 года 10 мес. назад | Торрент скачан:7 раз
Скачать  

07-01-2017 09:27 Море зовет Скачать торрент  

Море зовет
Страна: СССР
Производство: Киностудия им. А. Довженко

Жанр: драма
Год выпуска: 1956
Продолжительность: 01:34:44

Перевод: Не требуется
Cубтитры: нет
Оригинальная аудиодорожка: русский

Режиссер: Владимир Браун

В ролях:
Людмила Скопина, Анатолий Соловьёв, Юрий Пузырёв, Александр Суснин, Вова Улитин, Надежда Семенцова, Надежда Румянцева, Григорий Козаченко, Пётр Савин, Д. Иваний, Андрей Сова, Александр Лебедев...
Полный список актёров

Описание:
Екатерина Чумак, вдова черноморского моряка, растит четверых сыновей. Дети погибшего моряка решают посвятить свои жизни морю. Двое плавают на одном сейнере. Один из них - капитан, второй мечтает о дальних берегах и пытается игнорировать приказы капитана, но вскоре поняв, что так он ничего не добьется, берет уроки мужества и порядка у старшего брата. Младший братишка - шкодливый пятиклассник Тимка - тоже когда-нибудь станет капитаном, а пока решает оставить мать в покое и устроиться юнгой на корабль.

Источник: DVB
Качество видео: SATRip
Формат видео: AVI

Видео: 688x512 (4:3), 25 fps, XviD ~ 2005 kbps avg, 0.228 bit/pixel
Аудио: 48 kHz, Dolby Digital AC3 2.0, 192 kbps

Раздача от:
Общее
Полное имя : More.zovet.1956.SATRip_[New-team]_by_AVP_Studio.avi
Формат : AVI
Формат/Информация : Audio Video Interleave
Размер файла : 1,46 Гбайт
Продолжительность : 1 ч. 34 м.
Общий поток : 2207 Кбит/сек
Программа кодирования : VirtualDubMod 1.5.10.3 | www.virtualdub-fr.org || (build 2550/release)
Библиотека кодирования : VirtualDubMod build 2550/release

Видео
Идентификатор : 0
Формат : MPEG-4 Visual
Профиль формата : Advanced Simple@L5
Параметр BVOP формата : 1
Параметр QPel формата : Нет
Параметр GMC формата : Без точки перехода
Параметр матрицы формата : Выборочная
Идентификатор кодека : XVID
Идентификатор кодека/Подсказка : XviD
Продолжительность : 1 ч. 34 м.
Битрейт : 2005 Кбит/сек
Ширина : 688 пикселей
Высота : 512 пикселей
Соотношение сторон : 4:3
Частота кадров : 25,000 кадров/сек
Цветовое пространство : YUV
Субдискретизация насыщенности : 4:2:0
Битовая глубина : 8 бит
Тип развёртки : Прогрессивная
Метод сжатия : С потерями
Бит/(Пиксели*Кадры) : 0.228
Размер потока : 1,33 Гбайт (91%)
Библиотека кодирования : XviD 73

Аудио
Идентификатор : 1
Формат : AC-3
Формат/Информация : Audio Coding 3
Расширение режима : CM (complete main)
Параметр Endianness формата : Big
Идентификатор кодека : 2000
Продолжительность : 1 ч. 34 м.
Вид битрейта : Постоянный
Битрейт : 192 Кбит/сек
Каналы : 2 канала
Расположение каналов : Front: L R
Частота : 48,0 КГц
Частота кадров : 31,250 кадров/сек (1536 spf)
Битовая глубина : 16 бит
Метод сжатия : С потерями
Размер потока : 130 Мбайт (9%)
Выравнивание : Разделение по промежуткам
Продолжительность промежутка : 40 мс. (1,00 видеокадр)
Время предзагрузки промежутка : 500 мс
pb.wtf



Скачать Море зовет через торрент http://s019.radikal.ru/i626/1701/36/75fdbdc5a112.png Скачать фильм Море зовет через торрент бесплантно в хорошем качестве Описание:Екатерина Чумак, вдова черноморского моряка, растит четверых сыновей. Дети погибшего моряка решают посвятить свои жизни морю. Двое ... 10 10 2
Info! Золотая раздача, скачанное не засчитывается.
Торрент: Зарегистрирован [2017-01-07 09:31] · скачан: 7 раз
Статус: √ проверено
Размер: 1.46 GB
Как cкачать? Как скачать Море зовет через торрент | qTorrent

% Раздел Тема Автор DL S | L
Зарубежные Мультфильмы (BDRip 1080p, 720p, Blu-ray, BD-Remux) [ 13.35 GB ] Монстры на каникулах 3: Море зовёт / Hotel Transylvania 3: Summer Vacation [2018 мультфильм BDRip 1080p] DUB [] sheker187 Скачать
2 | 0
Ultra HD (UHD: 2K, 4K, 8K) [ 20.31 GB ] Монстры на каникулах 3: Море зовёт / Hotel Transylvania 3: Summer Vacation [2018 мультфильм UHD BDRip 2160p] [SDR] DUB [] sheker187 Скачать
1 | 0
Ultra HD (UHD: 2K, 4K, 8K) [ 52.24 GB ] Монстры на каникулах 3: Море зовёт / Hotel Transylvania 3: Summer Vacation [2018 мультфильм UHD Blu-ray 2160p] DUB [] sheker187 Скачать
1 | 0
Ultra HD (UHD: 2K, 4K, 8K) [ 11 GB ] Монстры на каникулах 3: Море зовёт / Hotel Transylvania 3: Summer Vacation [2018 мультфильм UHD BDRip 2160p] DUB [] sheker187 Скачать
1 | 0
Иностранные мультфильмы [ 2.19 GB ] Монстры на каникулах 3: Море зовёт / Hotel Transylvania 3: Summer Vacation [2018 мультфильм BDRip-AVC] DUB [] - ExKinoRay Enigma2010 Скачать
6 | 0
Ultra HD (UHD: 2K, 4K, 8K) [ 38.62 GB ] Монстры на каникулах 3: Море зовёт / Hotel Transylvania 3: Summer Vacation [2018 мультфильм UHD BDRemux 2160p] DUB [] sheker187 Скачать
1 | 0
Зарубежные Мультфильмы (BDRip 1080p, 720p, Blu-ray, BD-Remux) [ 2.01 GB ] Монстры на каникулах 3: Море зовёт / Hotel Transylvania 3: Summer Vacation [2018 Мультфильм BDRip 1080p HEVC ()] Мичман37 Скачать
2 | 0


>> Регистрируемся здесь <<






Отзывы и комментарии о схеме читаем и пишем здесь: ---> Отзывы и комментарии о схеме

Новые благодарочки в телеграм довольных пользователей:
скриншот   скриншот   скриншот   скриншот   скриншот
    Дорогой пользователь! Огромная просьба, поблагодарите релизера, оцените раздачу и оставьте свои комментарий, если Вы скачали Море зовет через торрент бесплатно! Внесите свою лепту в развитие PiratBit!
    Комментировать посты могут только пользователи прошедшие не сложную регистрацию
    Показать сообщения:    

    Море зовет через торрент
    Скачать бесплатно Море зовет
    Море зовет скачать торрент
    Море зовет смотреть онлайн
    Cкачать фильм Море зовет бесплатно
    Море зовет скачать торрент в хорошем качестве
    Море зовет смотреть онлайн бесплатно в хорошем качестве


    Вы не можете начинать темы
    Вы не можете отвечать на сообщения
    Вы не можете редактировать свои сообщения
    Вы не можете удалять свои сообщения
    Вы не можете голосовать в опросах
    Вы не можете прикреплять файлы к сообщениям
    Вы можете скачивать файлы