Ссылка на приватное зеркало всего за 1$. Внимание количество ограничено!!!

OK

1+1

iTunes

мы

OK

1

WEB-DLRip

Джокер

Пифагор

Ведьмак / The Witcher сериал

Лицензия

ПШазам

ОК

Оно 2

iTunes

30
pack

Вам бонус

ВАЖНО

!!Акция!!

Alien_RageХит недели

RePack

Resident Evil 21

ИГРА 18+

pack

RePack

jed

!!Акция!!

Alien_Rage

RePack

fifa19

RePack

Assassins Creed: Odyssey

RePack

NEED FOR SPEED™ PAYBACK

4 сезон

9 сезон

Бесстыжие 9 сезон

Все сериалы

все сериалы на PB.wtf

RePack

FAR CRY 5
  

Богородица. Земной путь (1 канал) [2017 г., Документальный, HDTVRip 720p, Перевод отсутствует Оригинал] pb.wtf

Богородица. Земной путь через торрент pb.wtf

Размер: 1.15 GB | Добавлен: 3 года назад | Торрент скачан:46 раз
Скачать  

08-01-2017 10:20 Богородица. Земной путь Скачать торрент  

Богородица. Земной путь
Год выпуска: 2017
Страна: Россия
Жанр: Документальный
Продолжительность: 01:24:57
Перевод: Перевод отсутствует Оригинал

Режиссер: 1 канал

Описание:

Ее называют по-разному: Богородица, Царица небесная, Пресвятая Дева. Или Утешительница. Но что мы о Ней знаем? У каждого из нас есть в голове сложившийся образ Божьей Матери, хотя на самом деле о Ней совсем немного сказано в Библии, в основном в Евангелиях. В фильме мы попробуем представить себе Ее жизнь. И, возможно, это поможет нам лучше понять суть подвига Богородицы. Если переходить на современные термины, то вкратце Ее можно было бы описать так: раннее сиротство, жизнь при храме, подозрения супруга об измене. Это начало жизненного пути Пресвятой Богородицы. А потом — издевательства толпы над Сыном, Его мученическая смерть и долгие годы жизни без Него...




Качество:HDTVRip 720p
Формат: AVI
Видео кодек: AVC/H.264
Аудио кодек: MP3
Видео: AVC/H.264,(1280х720),1800 Кбит/с, 24.000 кадра/сек
Аудио#1: MP3, 2 ch, 128 kb/s,44.1 KHz
скриншот   скриншот   скриншот   скриншот  

Format : AVI
Format/Info : Audio Video Interleave
Format profile : OpenDML
File size : 1.15 GiB
Duration : 1h 24mn
Overall bit rate : 1 940 Kbps
Writing application : Lavf57.41.100

Video
ID : 0
Format : AVC
Format/Info : Advanced Video Codec
Format profile : High@L3.1
Format settings, CABAC : Yes
Format settings, ReFrames : 4 frames
Codec ID : H264
Duration : 1h 24mn
Bit rate : 1 800 Kbps
Width : 1 280 pixels
Height : 720 pixels
Display aspect ratio : 16:9
Frame rate mode : Variable
Frame rate : 24.000 fps
Color space : YUV
Chroma subsampling : 4:2:0
Bit depth : 8 bits
Scan type : Progressive
Bits/(Pixel*Frame) : 0.081
Stream size : 1.07 GiB (93%)
Writing library : x264 core 148
Encoding settings : cabac=1 / ref=3 / deblock=1:0:0 / analyse=0x3:0x113 / me=hex / subme=7 / psy=1 / psy_rd=1.00:0.00 / mixed_ref=1 / me_range=16 / chroma_me=1 / trellis=1 / 8x8dct=1 / cqm=0 / deadzone=21,11 / fast_pskip=1 / chroma_qp_offset=-2 / threads=12 / lookahead_threads=2 / sliced_threads=0 / nr=0 / decimate=1 / interlaced=0 / bluray_compat=0 / constrained_intra=0 / bframes=3 / b_pyramid=2 / b_adapt=1 / b_bias=0 / direct=1 / weightb=1 / open_gop=0 / weightp=2 / keyint=250 / keyint_min=24 / scenecut=40 / intra_refresh=0 / rc_lookahead=40 / rc=abr / mbtree=1 / bitrate=1800 / ratetol=1.0 / qcomp=0.60 / qpmin=0 / qpmax=69 / qpstep=4 / ip_ratio=1.40 / aq=1:1.00

Audio
ID : 1
Format : MPEG Audio
Format version : Version 1
Format profile : Layer 3
Mode : Joint stereo
Mode extension : MS Stereo
Codec ID : 55
Codec ID/Hint : MP3
Duration : 1h 24mn
Bit rate mode : Constant
Bit rate : 128 Kbps
Channel(s) : 2 channels
Sampling rate : 44.1 KHz
Compression mode : Lossy
Stream size : 77.8 MiB (7%)
Alignment : Aligned on interleaves
Interleave, duration : 26 ms (0.63 video frame)
Writing library : LAME3.99.5

pb.wtf



Скачать Богородица. Земной путь через торрент http://s009.radikal.ru/i309/1701/70/8c4dd69688ab.jpg Скачать фильм Богородица. Земной путь через торрент бесплантно в хорошем качестве Описание: Ее называют по-разному: Богородица, Царица небесная, Пресвятая Дева. Или Утешительница. Но что мы о Ней знаем? У каждого из нас ... 7 10 3
Торрент: Зарегистрирован [2017-01-08 10:20] · скачан: 46 раз
Статус: √ проверено
Размер: 1.15 GB
Как cкачать? Как скачать Богородица. Земной путь через торрент | qTorrent

28-11-2019 20:33  

Отключить всю рекламу на сайте

    Дорогой пользователь! Огромная просьба, поблагодарите релизера, оцените раздачу и оставьте свои комментарий, если Вы скачали Богородица. Земной путь через торрент бесплатно! Внесите свою лепту в развитие PiratBit!
    Комментировать посты могут только пользователи прошедшие не сложную регистрацию
    Показать сообщения:    

    Богородица. Земной путь через торрент
    Скачать бесплатно Богородица. Земной путь
    Богородица. Земной путь скачать торрент
    Богородица. Земной путь смотреть онлайн
    Cкачать фильм Богородица. Земной путь бесплатно
    Богородица. Земной путь скачать торрент в хорошем качестве
    Богородица. Земной путь смотреть онлайн бесплатно в хорошем качестве


    Вы не можете начинать темы
    Вы не можете отвечать на сообщения
    Вы не можете редактировать свои сообщения
    Вы не можете удалять свои сообщения
    Вы не можете голосовать в опросах
    Вы не можете прикреплять файлы к сообщениям
    Вы можете скачивать файлы