новый адрес
Мега распродажа FORZA HORIZON 4 ULTIMATE+ВСЕ DLC+ОНЛАЙН всего за 499р. 349 руб. (супер цена). Внимание количество ограничено!!!

iTunes

1+1

iTunes

мы

iTunes

1

iTunes

Чернобыль

iTunes

Ральф против интернета

Лицензия

ПШазам

Лицензия

Оно 2

Лицензия

30
pack

ВАЖНО

!!Акция!!

Alien_RageХит недели

RePack

Resident Evil 21

ИГРА 18+

pack

RePack

jed

!!Акция!!

Alien_Rage

RePack

fifa19

RePack

Assassins Creed: Odyssey

RePack

NEED FOR SPEED™ PAYBACK

3 сезон

9 сезон

Бесстыжие 9 сезон

Все сериалы

все сериалы на PB.wtf

RePack

FAR CRY 5
Ребята, катастрофически не хватает 1900р. для оплаты серверов за Октябрь (всвязи с блокировками трафик упал в 3 раза), 1-2р., выручайте.
  

Мост (Борис Шрейбер) [1956, СССР, драма, SATRip от AVP Studio] pb.wtf

Мост через торрент pb.wtf

Размер: 1.09 GB | Добавлен: 2 года 10 мес. назад | Торрент скачан:6 раз
Скачать  

08-01-2017 14:11 Мост Скачать торрент  

Мост
Страна: СССР
Производство: Литовская студия художественных и хроникальных фильмов

Жанр: драма
Год выпуска: 1956
Продолжительность: 01:27:10

Перевод: Не требуется
Cубтитры: нет
Оригинальная аудиодорожка: русский

Режиссер: Борис Шрейбер

В ролях:
Балис Браткаускас, Кестутис Генис, Алдона Йодкайте, Наполеонас Бернотас, Йонас Каваляускас, Владас Юркунас, Галина Яцкевичюте, Арнас Росенас, Феликс Эйнас, Ирена Леонавичюте-Браткаускене...
Полный список актёров

Описание:
Небольшой литовский городок. Молодой инженер Альгирдас Араминас закончил строительство нового моста. В день, когда должно было состояться открытие, мост был разрушен немецкими бомбами. Началась война. Альгирдас подавлен, он опускается, начинает пить. Однако, когда немцы начали восстанавливать мост, он соглашается работать. Но у инженера не дрогнула рука вновь взорвать свое детище, чтобы спасти угоняемых в Германию соотечественников. Араминаса приговаривают к расстрелу. Но его спасают партизаны. Вместе с ними Альгирдас уходит в отряд, чтобы бороться с фашистами.

Источник: DVB
Качество видео: SATRip
Формат видео: AVI

Видео: 688x512 (4:3), 25 fps, XviD ~ 1589 kbps avg, 0.180 bit/pixel
Аудио: 48 kHz, Dolby Digital AC3 2.0, 192 kbps

Раздача от:
Общее
Полное имя : Most.1956.SATRip_[New-team]_by_AVP_Studio.avi
Формат : AVI
Формат/Информация : Audio Video Interleave
Размер файла : 1,09 Гбайт
Продолжительность : 1 ч. 27 м.
Общий поток : 1791 Кбит/сек
Программа кодирования : VirtualDubMod 1.5.10.3 | www.virtualdub-fr.org || (build 2550/release)
Библиотека кодирования : VirtualDubMod build 2550/release

Видео
Идентификатор : 0
Формат : MPEG-4 Visual
Профиль формата : Advanced Simple@L5
Параметр BVOP формата : 1
Параметр QPel формата : Нет
Параметр GMC формата : Без точки перехода
Параметр матрицы формата : Выборочная
Идентификатор кодека : XVID
Идентификатор кодека/Подсказка : XviD
Продолжительность : 1 ч. 27 м.
Битрейт : 1589 Кбит/сек
Ширина : 688 пикселей
Высота : 512 пикселей
Соотношение сторон : 4:3
Частота кадров : 25,000 кадров/сек
Цветовое пространство : YUV
Субдискретизация насыщенности : 4:2:0
Битовая глубина : 8 бит
Тип развёртки : Прогрессивная
Метод сжатия : С потерями
Бит/(Пиксели*Кадры) : 0.180
Размер потока : 991 Мбайт (89%)
Библиотека кодирования : XviD 73

Аудио
Идентификатор : 1
Формат : AC-3
Формат/Информация : Audio Coding 3
Расширение режима : CM (complete main)
Параметр Endianness формата : Big
Идентификатор кодека : 2000
Продолжительность : 1 ч. 27 м.
Вид битрейта : Постоянный
Битрейт : 192 Кбит/сек
Каналы : 2 канала
Расположение каналов : Front: L R
Частота : 48,0 КГц
Частота кадров : 31,250 кадров/сек (1536 spf)
Битовая глубина : 16 бит
Метод сжатия : С потерями
Размер потока : 120 Мбайт (11%)
Выравнивание : Разделение по промежуткам
Продолжительность промежутка : 40 мс. (1,00 видеокадр)
Время предзагрузки промежутка : 500 мс
pb.wtf



Скачать Мост через торрент http://s016.radikal.ru/i335/1701/ca/81409f10f1b4.png Скачать фильм Мост через торрент бесплантно в хорошем качестве Описание:Небольшой литовский городок. Молодой инженер Альгирдас Араминас закончил строительство нового моста. В день, когда должно было ... 10 10 1
Info! Золотая раздача, скачанное не засчитывается.
Торрент: Зарегистрирован [2017-01-08 14:11] · скачан: 6 раз
Статус: √ проверено
Размер: 1.09 GB
Как cкачать? Как скачать Мост через торрент | qTorrent

% Раздел Тема Автор DL S | L
Фильмы 2001-2005 [ 2.02 GB ] Необратимость / Irréversible [2002 DVDRip-AVC] DVO + Original + Sub Kristian Larsson Скачать
1 | 0
Фильмы 2001-2005 [ 1.46 GB ] Необратимость / Irréversible [2002 DVDRip двухголосый] makarevich Скачать
1 | 0
Документальные фильмы и телепередачи [ 115 MB ] Освободись от зависимости! [2012 документальный WEBRip Оригинал] metanoia Скачать
1 | 0
Фильмы 2001-2005 [ 1.45 GB ] Одержимость / Wicker Park [2004 HDTVRip-AVC] DUB stalonе Скачать
1 | 0
Фильмы 2001-2005 [ 1.47 GB ] Одержимость / Wicker Park [2004 DVDRip] smaster Скачать
1 | 0
Сборники (HD Video) [ 41.67 GB ] Терминатор: Квадрология / Terminator: Quadrilogy [1984 1991 2003 2009 BDRip ] k@rl$on Скачать
1 | 0
Гонзо [ 838 MB ] "Самострелы" / Selfies [2013 All Sex Oral Teen. WEB-DLRip Оригинал] Pir@tya2010 Скачать
1 | 0


>> Регистрируемся здесь <<






Отзывы и комментарии о схеме читаем и пишем здесь: ---> Отзывы и комментарии о схеме

Новые благодарочки в телеграм довольных пользователей:
скриншот   скриншот   скриншот   скриншот   скриншот
    Дорогой пользователь! Огромная просьба, поблагодарите релизера, оцените раздачу и оставьте свои комментарий, если Вы скачали Мост через торрент бесплатно! Внесите свою лепту в развитие PiratBit!
    Комментировать посты могут только пользователи прошедшие не сложную регистрацию
    Показать сообщения:    

    Мост через торрент
    Скачать бесплатно Мост
    Мост скачать торрент
    Мост смотреть онлайн
    Cкачать фильм Мост бесплатно
    Мост скачать торрент в хорошем качестве
    Мост смотреть онлайн бесплатно в хорошем качестве


    Вы не можете начинать темы
    Вы не можете отвечать на сообщения
    Вы не можете редактировать свои сообщения
    Вы не можете удалять свои сообщения
    Вы не можете голосовать в опросах
    Вы не можете прикреплять файлы к сообщениям
    Вы можете скачивать файлы