новый адрес
Мега распродажа FORZA HORIZON 4 ULTIMATE+ВСЕ DLC+ОНЛАЙН всего за 499р. 349 руб. (супер цена). Внимание количество ограничено!!!

iTunes

1+1

iTunes

мы

iTunes

1

iTunes

Чернобыль

iTunes

Ральф против интернета

Лицензия

ПШазам

Лицензия

Игра престолов

Лицензия

30
pack

ВАЖНО

!!Акция!!

Alien_RageХит недели

RePack

Resident Evil 21

ИГРА 18+

pack

RePack

Metro:Exodus

!!Акция!!

Alien_Rage

RePack

fifa19

RePack

Assassins Creed: Odyssey

RePack

NEED FOR SPEED™ PAYBACK

3 сезон

9 сезон

Бесстыжие 9 сезон

Все сериалы

все сериалы на PB.wtf

RePack

FAR CRY 5
Ребята, катастрофически не хватает 1900р. для оплаты серверов за Октябрь (всвязи с блокировками трафик упал в 3 раза), 1-2р., выручайте.
  

Моя дочь (Виктор Жилин) [1956, драма, SATRip от AVP Studio] pb.wtf

Моя дочь через торрент pb.wtf

Размер: 1.09 GB | Добавлен: 2 года 10 мес. назад | Торрент скачан:13 раз
Скачать  

09-01-2017 10:04 Моя дочь Скачать торрент  

Моя дочь
Страна: СССР
Производство: Одесская киностудия

Жанр: драма
Год выпуска: 1956
Продолжительность: 01:24:33

Перевод: Не требуется
Cубтитры: нет
Оригинальная аудиодорожка: русский

Режиссер: Виктор Жилин

В ролях:
Иван Дмитриев, Виктория Радунская, Всеволод Аксёнов, Гертруда Двойникова, Олег Жаков, Анатолий Игнатьев, Зинаида Сорочинская, Ада Войцик, Пётр Репнин, Юрий Кротенко, Галина Покрышкина, Надя Чаюн...
Полный список актёров

Описание:
Когда-то Мирский покинул приморский город, оставив жену Наталью с маленькой дочкой Светланой. Наталья вышла замуж за судью Кочана, ставшего девочке хорошим отцом. Семья жила счастливо. Когда дочь выросла, Мирский вернулся в город и, устроившись в балетную школу, где училась Светлана, очень скоро добился ее уважения и любви, а на последующем суде нашел нужные слова в решении вопроса о его правах отцовства. Однако очень скоро родной отец убедился в том, что ему нечего дать дочери, - и позволил ей вернуться в семью Кочана...

Источник: DVB
Качество видео: SATRip
Формат видео: AVI

Видео: 688x512 (4:3), 25 fps, XviD ~ 1643 kbps avg, 0.187 bit/pixel
Аудио: 48 kHz, Dolby Digital AC3 2.0, 192 kbps

Раздача от:
Общее
Полное имя : Moya.doch.1956.SATRip_[New-team]_by_AVP_Studio.avi
Формат : AVI
Формат/Информация : Audio Video Interleave
Размер файла : 1,09 Гбайт
Продолжительность : 1 ч. 24 м.
Общий поток : 1845 Кбит/сек
Программа кодирования : VirtualDubMod 1.5.10.3 | www.virtualdub-fr.org || (build 2550/release)
Библиотека кодирования : VirtualDubMod build 2550/release

Видео
Идентификатор : 0
Формат : MPEG-4 Visual
Профиль формата : Advanced Simple@L5
Параметр BVOP формата : 1
Параметр QPel формата : Нет
Параметр GMC формата : Без точки перехода
Параметр матрицы формата : Выборочная
Идентификатор кодека : XVID
Идентификатор кодека/Подсказка : XviD
Продолжительность : 1 ч. 24 м.
Битрейт : 1643 Кбит/сек
Ширина : 688 пикселей
Высота : 512 пикселей
Соотношение сторон : 4:3
Частота кадров : 25,000 кадров/сек
Цветовое пространство : YUV
Субдискретизация насыщенности : 4:2:0
Битовая глубина : 8 бит
Тип развёртки : Прогрессивная
Метод сжатия : С потерями
Бит/(Пиксели*Кадры) : 0.187
Размер потока : 994 Мбайт (89%)
Библиотека кодирования : XviD 73

Аудио
Идентификатор : 1
Формат : AC-3
Формат/Информация : Audio Coding 3
Расширение режима : CM (complete main)
Параметр Endianness формата : Big
Идентификатор кодека : 2000
Продолжительность : 1 ч. 24 м.
Вид битрейта : Постоянный
Битрейт : 192 Кбит/сек
Каналы : 2 канала
Расположение каналов : Front: L R
Частота : 48,0 КГц
Частота кадров : 31,250 кадров/сек (1536 spf)
Битовая глубина : 16 бит
Метод сжатия : С потерями
Размер потока : 116 Мбайт (10%)
Выравнивание : Разделение по промежуткам
Продолжительность промежутка : 40 мс. (1,00 видеокадр)
Время предзагрузки промежутка : 500 мс
pb.wtf



Скачать Моя дочь через торрент http://s019.radikal.ru/i620/1701/b7/50dec04c706b.png Скачать фильм Моя дочь через торрент бесплантно в хорошем качестве Описание:Когда-то Мирский покинул приморский город, оставив жену Наталью с маленькой дочкой Светланой. Наталья вышла замуж за судью Кочана, ... 10 10 2
Info! Золотая раздача, скачанное не засчитывается.
Торрент: Зарегистрирован [2017-01-09 10:04] · скачан: 13 раз
Статус: √ проверено
Размер: 1.09 GB
Как cкачать? Как скачать Моя дочь через торрент | qTorrent

% Раздел Тема Автор DL S | L
# Фильмы (мультфильмы) cо спонсором показа (Новинки AVI/MKV) [ 4.82 GB ] Дочь моя / Figlia mia [2018 BDRip 720p] MVO ["Синема УС"] bober100 Скачать
1 | 0
T Фильмы (мультфильмы) cо спонсором показа (Новинки AVI/MKV) [ 1.37 GB ] Дочь моя / Figlia mia [2018 HDRip] MVO ["Синема УС"] bober100 Скачать
1 | 0
Гонзо [ 1.25 GB ] Не Трахай Мою Дочь.com 4 / Don't Fuck My Daughter.com 4 [2019 All Sex Oral Gonzo Legal Teen Facial Couples WEB-DLRip] sheker187 Скачать
1 | 0
Порно фильмы с сюжетом [ 1.19 GB ] Моя дочь - шлюха / Я представляю вам мою дочь. / Ma fille est une putain / Vi presento mia figlia. [2002 Feature European All sex Anal. DVDRip Оригинал] Pir@tya2010 Скачать
1 | 1
Гонзо [ 1.23 GB ] Не Трахай Мою Дочь.com #1 / Don't Fuck My Daughter.com #1 [2018 All Sex Anal Oral Gonzo Legal Teen Facial WEB-DL 480p] Split Scenes sheker187 Скачать
1 | 1
T Релизы по Парсеру [Игры, Сериалы и Фильмы и другое...] [ 1.37 GB ] Моя дочь пропала / My Daughter Is Missing [2017 HDTVRip Любительский | Синема УС] oleg8 Скачать
1 | 0
T Фильмы (мультфильмы) cо спонсором показа (Новинки AVI/MKV) [ 2.6 GB ] Моя дочь пропала / My Daughter Is Missing [2017 HDTVRip 720p] MVO [Синема УС] bober100 Скачать
1 | 0


>> Регистрируемся здесь <<






Отзывы и комментарии о схеме читаем и пишем здесь: ---> Отзывы и комментарии о схеме

Новые благодарочки в телеграм довольных пользователей:
скриншот   скриншот   скриншот   скриншот   скриншот
    Дорогой пользователь! Огромная просьба, поблагодарите релизера, оцените раздачу и оставьте свои комментарий, если Вы скачали Моя дочь через торрент бесплатно! Внесите свою лепту в развитие PiratBit!
    Комментировать посты могут только пользователи прошедшие не сложную регистрацию
    Показать сообщения:    

    Моя дочь через торрент
    Скачать бесплатно Моя дочь
    Моя дочь скачать торрент
    Моя дочь смотреть онлайн
    Cкачать фильм Моя дочь бесплатно
    Моя дочь скачать торрент в хорошем качестве
    Моя дочь смотреть онлайн бесплатно в хорошем качестве


    Вы не можете начинать темы
    Вы не можете отвечать на сообщения
    Вы не можете редактировать свои сообщения
    Вы не можете удалять свои сообщения
    Вы не можете голосовать в опросах
    Вы не можете прикреплять файлы к сообщениям
    Вы можете скачивать файлы