Ссылка на приватное зеркало нашего сайта всего за 1$. Внимание количество ограничено!!!

2 сезон

iTunes

1 сезон

1

2 сезон

2 сезон

iTunes

1 сезон

RePack

30

Ultimate

ВАЖНО

ИГРА 18+

pack

RePack

MK11
pack

Забери бонус

RePack

jed

!!Акция!!

Alien_Rage

RePack

fifa19

RePack

Assassins Creed: Odyssey

RePack

NEED FOR SPEED™ PAYBACK

4 сезон

9 сезон

Бесстыжие 9 сезон

Все сериалы

все сериалы на PB.wtf

RePack

FAR CRY 5
  

Табу / Taboo / Сезон: 1 / Серии: 1-8 из 8 (Андерс Энгстрем, Кристоффер Нюхольм) [2017, Драма, HDTVRip 720p] [Sub Rus] pb.wtf

Табу через торрент pb.wtf

Размер: 7.42 GB | Добавлен: 3 года 9 мес. назад | Торрент скачан:18 раз

Нужна данная раздача на пирате ?

 1.Да (24)

 2.Нет (7)

 3.Свой вариант пишем в комментариях (0)

Всего проголосовало : 31

Скачать  

09-01-2017 12:50 Табу Скачать торрент  

Табу / Taboo
Год выхода: 2017
Жанр: Драма
Страна: США
Продолжительность: ~ 00:55:00 серия
Перевод: Русские субтитры
Субтитры: Русские
Оригинальная аудиодорожка: английский

Режиссер: Андерс Энгстрем, Кристоффер Нюхольм

В ролях: Том Харди, Лео Билл, Уна Чаплин, Ричард Диксон, Дэвид Хейман, Майкл Келли, Дэнни Лигаири, Джонатан Прайс, Рой Торн, Скрубиус Пип
О фильме:
Считающийся погибшим, авантюрист и искатель приключений Джеймс Кезиах Делейни вновь в 1814 году, после 10 лет путешествий в Африке, появляется в Лондоне, стремясь отомстить за смерть своего отца. Делейни возвращается, чтобы обнаружить, что ему было оставлено отцом таинственное наследство и строит свою собственную корабельную империю в начале 1800-х годов, играя в опасную игру между двумя воюющими странами - Англией и Америкой...


Файл

Качество: HDTVRip 720p
Формат: MKV
Видео: MPEG-4 AVC, ~ 1960 Кбит/с, 1280х720, 23.438 fps
Аудио: 48 kHz, AC3, 6 ch, ~384.00 kbps avg
General
Unique ID : 0 (0x0)
Complete name : E:\Taboo.UK.S01.720p.HDTV.x264.Sub\taboo.uk.s01e01.proper.720p.hdtv.x264-verum.mkv
Format : Matroska
Format version : Version 4 / Version 2
File size : 937 MiB
Duration : 54mn 57s
Overall bit rate : 2 384 Kbps
Encoded date : UTC 2010-02-22 21:41:29
Writing application : no_variable_data
Writing library : no_variable_data

Video
ID : 1
Format : AVC
Format/Info : Advanced Video Codec
Format profile : High@L4.1
Format settings, CABAC : Yes
Format settings, ReFrames : 5 frames
Codec ID : V_MPEG4/ISO/AVC
Duration : 54mn 57s
Bit rate : 1 953 Kbps
Width : 1 280 pixels
Height : 720 pixels
Display aspect ratio : 16:9
Frame rate mode : Constant
Frame rate : 23.438 fps
Color space : YUV
Chroma subsampling : 4:2:0
Bit depth : 8 bits
Scan type : Progressive
Bits/(Pixel*Frame) : 0.090
Stream size : 768 MiB (82%)
Writing library : x264 core 148 r2744 b97ae06
Encoding settings : cabac=1 / ref=5 / deblock=1:0:0 / analyse=0x3:0x113 / me=hex / subme=8 / psy=1 / psy_rd=1.00:0.00 / mixed_ref=1 / me_range=16 / chroma_me=1 / trellis=2 / 8x8dct=1 / cqm=0 / deadzone=21,11 / fast_pskip=1 / chroma_qp_offset=-2 / threads=12 / lookahead_threads=2 / sliced_threads=0 / nr=0 / decimate=1 / interlaced=0 / bluray_compat=0 / constrained_intra=0 / bframes=3 / b_pyramid=2 / b_adapt=1 / b_bias=0 / direct=3 / weightb=1 / open_gop=0 / weightp=2 / keyint=250 / keyint_min=25 / scenecut=40 / intra_refresh=0 / rc_lookahead=50 / rc=crf / mbtree=1 / crf=18.0 / qcomp=0.60 / qpmin=0 / qpmax=69 / qpstep=4 / ip_ratio=1.40 / aq=1:1.00
Language : English
Default : Yes
Forced : No
Color range : Limited
Matrix coefficients : BT.709

Audio
ID : 2
Format : AC-3
Format/Info : Audio Coding 3
Mode extension : CM (complete main)
Format settings, Endianness : Big
Codec ID : A_AC3
Duration : 54mn 57s
Bit rate mode : Constant
Bit rate : 384 Kbps
Channel(s) : 6 channels
Channel positions : Front: L C R, Side: L R, LFE
Sampling rate : 48.0 KHz
Compression mode : Lossy
Stream size : 151 MiB (16%)
Language : English
Default : Yes
Forced : No
Внимание! Раздача ведётся путём добавления новых серий; при каждом добавлении создётся новый торрент. Чтобы начать докачку новой серии, пользователям необходимо сделать следующее:
Остановить скачивание.
Удалить старый торрент у себя из клиента (старые серии удалять не надо).
Скачать новый торрент и запустить его у себя в клиенте вместо старого, при этом указать клиенту путь в старую папку куда и должно происходить скачивание новых серий.
Ваш клиент при этом должен произвести хеширование (проверку) старой папки (если не производит сам - помогите ему сделать это), и будет докачивать только те серии которых у вас ещё нет. Старые серии при этом не удаляются, а продолжают раздаваться!
Eсли вы уже удалили старые серии, то предотвратить повторную закачку старых серий можно, отжав галочку в соответсвующих местах при запуске нового торрента. По возможности, желательно не удалять старые серии как можно дольше чтобы релизёр не столько продолжал раздавать старые серии, а смог сконцентрироваться на новых.
pb.wtf



Скачать Табу через торрент http://i90.fastpic.ru/big/2017/0109/7c/5b261ab9bad992d905f209c97589c97c.jpg Скачать фильм Табу через торрент бесплантно в хорошем качестве О фильме:Считающийся погибшим, авантюрист и искатель приключений Джеймс Кезиах Делейни вновь в 1814 году, после 10 лет путешествий в ... 8.8 10 10
Info! Серебряная раздача, засчитывается только 50% скачанного.
Торрент: Зарегистрирован [2017-02-27 12:02] · скачан: 18 раз
Статус: √ проверено
Размер: 7.42 GB
Как cкачать? Как скачать Табу через торрент | qTorrent

% Раздел Тема Автор DL S | L
Зарубежные сериалы [ 7.6 GB ] Табу / Taboo / Сезон: 1 / Серии: 1-8 из 8 [2017 BDRip] [MVO] killermax2013 Скачать
1 | 0
Зарубежные сериалы [ 5.14 GB ] Табу / Taboo / Сезон: 1 / Серии: 1-8 из 8 [2017 WEB-DLRip] [MVO] killermax2013 Скачать
1 | 0
Зарубежные сериалы [ 7.46 GB ] Табу / Taboo / Сезон 1 / Серии 1-8 из 8 [2017 WEB-DLRip-AVC] многоголосый [NewStudio] от ExKinoRay Enigma2010 Скачать
1 | 1
Зарубежные сериалы [ 19.88 GB ] Табу / Taboo / Сезон: 1 / Серии: 8 из 8 [2017 WEB-DL 1080p] MVO Ворон Скачать
1 | 0
Фильмы с украинским озвучиванием [ 4.4 GB ] Табу / Taboo / Сезон: 1 / Серии: 1-8 из 8 [2017 WEB-DLRip] [Ukr MVO] killermax2013 Скачать
1 | 0
Зарубежные сериалы [ 10.31 GB ] Табу / Taboo / Сезон: 1 / Серии: 1-8 из 8 [2017 WEBRip 720p / HDTVRip 720p] [DVO] killermax2013 Скачать
2 | 0
Зарубежные сериалы [ 30.9 GB ] Табу / Taboo / Сезон: 1 / Серии: 1-8 из 8 [2017 HDTVRip 1080p] [MVO] killermax2013 Скачать
1 | 0


Последний раз редактировалось: killermax2013 (2017-02-27 12:02), всего редактировалось 7 раз(а)

28-11-2019 20:33  

Отключить всю рекламу на сайте

09-01-2017 13:38 Табу Скачать торрент  

Спасибо, будет какой-нибудь проф перевод ?pb.wtf



09-01-2017 13:51 Табу Скачать торрент  

Chuvackk писал(а):

Спасибо, будет какой-нибудь проф перевод ?

будет возможно даже и сегодняpb.wtf



09-01-2017 16:27 Табу Скачать торрент  

Жду перевод от Лоста и забираю однозначно!
Сериал по всем данным бомба будет Харди тащит. pb.wtf



16-01-2017 17:53 Табу Скачать торрент  

+2pb.wtf



16-01-2017 18:24 Табу Скачать торрент  

Годный Сериал. Надеюсь на растянут на 10 сезонов.pb.wtf



16-01-2017 18:38 Табу Скачать торрент  

Ворон писал(а):

Годный Сериал. Надеюсь на растянут на 10 сезонов.

Создатели «Табу» рассчитывают на три сезонаpb.wtf



26-01-2017 14:07 Табу Скачать торрент  

+3pb.wtf



30-01-2017 11:28 Табу Скачать торрент  

+4pb.wtf



06-02-2017 14:26 Табу Скачать торрент  

+5pb.wtf



14-02-2017 17:06 Табу Скачать торрент  

+6pb.wtf



27-02-2017 12:03 Табу Скачать торрент  

Финал сезонаpb.wtf



    Дорогой пользователь! Огромная просьба, поблагодарите релизера, оцените раздачу и оставьте свои комментарий, если Вы скачали Табу через торрент бесплатно! Внесите свою лепту в развитие PiratBit!
    Комментировать посты могут только пользователи прошедшие не сложную регистрацию
    Показать сообщения:    

    Табу через торрент
    Скачать бесплатно Табу
    Табу скачать торрент
    Табу смотреть онлайн
    Cкачать фильм Табу бесплатно
    Табу скачать торрент в хорошем качестве
    Табу смотреть онлайн бесплатно в хорошем качестве


    Вы не можете начинать темы
    Вы не можете отвечать на сообщения
    Вы не можете редактировать свои сообщения
    Вы не можете удалять свои сообщения
    Вы не можете голосовать в опросах
    Вы не можете прикреплять файлы к сообщениям
    Вы можете скачивать файлы