Ссылка на приватное зеркало нашего сайта всего за 1$. Внимание количество ограничено!!!

2 сезон

iTunes

1 сезон

1

iTunes

iTunes

iTunes

1 сезон

RePack

30

ИГРА 18+

pack

ВАЖНО

!!Акция!!

Alien_RageХит недели

RePack

MK11
pack

Забери бонус

RePack

jed

!!Акция!!

Alien_Rage

RePack

fifa19

RePack

Assassins Creed: Odyssey

RePack

NEED FOR SPEED™ PAYBACK

4 сезон

9 сезон

Бесстыжие 9 сезон

Все сериалы

все сериалы на PB.wtf

RePack

FAR CRY 5
  

Стройка / 1-20 серии из 20 (Роман Самгин, Сахат Дурсунов) [2013 г., комедия, приключения, HDTVRip] pb.wtf

Стройка через торрент pb.wtf

Размер: 10.75 GB | Добавлен: 3 года 9 мес. назад | Торрент скачан:131 раз
Скачать  

09-01-2017 14:46 Стройка Скачать торрент  

Стройка
Год выпуска: 2013
Страна: Россия
Жанр: комедия, приключения
Всего серий: 20
Продолжительность: 20 x ~ 00:45:00
Перевод: Не требуется [Русский]
Субтитры: отсутствуют

Режиссер: Роман Самгин, Сахат Дурсунов



В ролях:

Артём Григорьев, Ирина Таранник, Эдуард Радзюкевич, Никита Панфилов, Юлия Михалкова, Ярослав Ефременко, Станислав Ярушин, Ольга Волкова, Елена Доронина (IV) и др.

Описание:

В центре истории – «непримиримые противоречия», в которых погрязли супруги Морозовы. Максим Морозов (Артём Григорьев) и его беременная жена Катя (Ирина Таранник) обращаются в суд с заявлением о разводе. Каждый из сторон просит судью (Эдуард Радзюкевич) отдать злополучный дом другому. Чтобы разобраться в этом деле, предстоит покопаться в истории семьи Морозовых...
День за днём Максим и Катя совершали все ошибки «новичков». Желая сэкономить, Морозовы идут наперекор известной поговорке: тщетно ищут хороших рабочих, покупают окна по акции, а потом пытаются их продать, самостоятельно разбираются в тонкостях прокладки труб, а в итоге платят больше за устранение неполадок... Но пройдя через все испытания, Морозовы станут настоящими экспертами в ремонте. Но нужен ли им будет в итоге этот злополучный дом?


Качество: HDTVRip
Формат: AVI
Видео кодек: XviD
Аудио кодек: AC3

Видео: 720x400 (1.80:1), 25 fps, XviD build 73 ~1567 kbps avg, 0.223 bit/pixel
Аудио#1: 48 kHz, AC3 Dolby Digital, 2/0 (L,R) ch, ~192.00 kbps avg
Общее
Полное имя : D:\Strojka.2016.HDTVRip.Files-x\01.Strojka.2016.HDTVRip.Files-x.avi
Формат : AVI
Формат/Информация : Audio Video Interleave
Размер файла : 550 Мбайт
Продолжительность : 43 м. 28 с.
Общий поток : 1770 Кбит/сек
Программа кодирования : VirtualDubMod 1.5.10.3 | www.virtualdub-fr.org || (build 2550/release)
Библиотека кодирования : VirtualDubMod build 2550/release

Видео
Идентификатор : 0
Формат : MPEG-4 Visual
Профиль формата : Advanced Simple@L5
Параметр BVOP формата : 1
Параметр QPel формата : Нет
Параметр GMC формата : Без точки перехода
Параметр матрицы формата : Выборочная
Идентификатор кодека : XVID
Идентификатор кодека/Подсказка : XviD
Продолжительность : 43 м. 28 с.
Битрейт : 1568 Кбит/сек
Ширина : 720 пикселей
Высота : 400 пикселей
Соотношение сторон : 16:9
Частота кадров : 25,000 кадров/сек
Цветовое пространство : YUV
Субдискретизация насыщенности : 4:2:0
Битовая глубина : 8 бит
Тип развёртки : Прогрессивная
Метод сжатия : С потерями
Бит/(Пиксели*Кадры) : 0.218
Размер потока : 488 Мбайт (89%)
Библиотека кодирования : XviD 73

Аудио
Идентификатор : 1
Формат : AC-3
Формат/Информация : Audio Coding 3
Расширение режима : CM (complete main)
Параметр Endianness формата : Big
Идентификатор кодека : 2000
Продолжительность : 43 м. 28 с.
Вид битрейта : Постоянный
Битрейт : 192 Кбит/сек
Каналы : 2 канала
Расположение каналов : Front: L R
Частота : 48,0 КГц
Частота кадров : 31,250 кадров/сек (1536 spf)
Метод сжатия : С потерями
Размер потока : 59,7 Мбайт (11%)
Выравнивание : Разделение по промежуткам
Продолжительность промежутка : 40 мс. (1,00 видеокадр)
Время предзагрузки промежутка : 500 мс.
скриншот   скриншот   скриншот   скриншот  
pb.wtf



Скачать Стройка через торрент http://s019.radikal.ru/i639/1701/3b/6a36d099dbdd.png Скачать фильм Стройка через торрент бесплантно в хорошем качестве Описание: В центре истории – «непримиримые противоречия», в которых погрязли супруги Морозовы. Максим Морозов (Артём Григорьев) и его ... 10 10 9
Info! Серебряная раздача, засчитывается только 50% скачанного.
Торрент: Зарегистрирован [2017-01-09 14:46] · скачан: 131 раз
Статус: √ проверено
Размер: 10.75 GB
Как cкачать? Как скачать Стройка через торрент | qTorrent

% Раздел Тема Автор DL S | L
Наши сериалы [ 8.69 GB ] Стройка / 1-20 серии из 20 [2013 WEB-DLRip] killermax2013 Скачать
1 | 0

28-11-2019 20:33  

Отключить всю рекламу на сайте

    Дорогой пользователь! Огромная просьба, поблагодарите релизера, оцените раздачу и оставьте свои комментарий, если Вы скачали Стройка через торрент бесплатно! Внесите свою лепту в развитие PiratBit!
    Комментировать посты могут только пользователи прошедшие не сложную регистрацию
    Показать сообщения:    

    Стройка через торрент
    Скачать бесплатно Стройка
    Стройка скачать торрент
    Стройка смотреть онлайн
    Cкачать фильм Стройка бесплатно
    Стройка скачать торрент в хорошем качестве
    Стройка смотреть онлайн бесплатно в хорошем качестве


    Вы не можете начинать темы
    Вы не можете отвечать на сообщения
    Вы не можете редактировать свои сообщения
    Вы не можете удалять свои сообщения
    Вы не можете голосовать в опросах
    Вы не можете прикреплять файлы к сообщениям
    Вы можете скачивать файлы