Ссылка на приватное зеркало нашего сайта всего за 1$. Внимание количество ограничено!!!

2 сезон

iTunes

1 сезон

1

iTunes

iTunes

iTunes

1 сезон

RePack

30

ИГРА 18+

pack

ВАЖНО

!!Акция!!

Alien_RageХит недели

RePack

MK11
pack

Забери бонус

RePack

jed

!!Акция!!

Alien_Rage

RePack

fifa19

RePack

Assassins Creed: Odyssey

RePack

NEED FOR SPEED™ PAYBACK

4 сезон

9 сезон

Бесстыжие 9 сезон

Все сериалы

все сериалы на PB.wtf

RePack

FAR CRY 5
  

Гражданский брак / Сезон 1 / Серии 1-16 из 16 (Дина Штурманова) [2017 , Россия, комедия, SATRip] pb.wtf

Гражданский брак через торрент pb.wtf

Размер: 4.29 GB | Добавлен: 3 года 8 мес. назад | Торрент скачан:262 раза
Скачать  

10-01-2017 00:02 Гражданский брак Скачать торрент  

Гражданский брак


  • Год выпуска: 2017
  • Страна: Россия
  • Жанр: комедия
  • Продолжительность: 00:23:18 (Серия)
  • Перевод: Не требуется [Русский]
  • Режиссер: Дина Штурманова
  • В ролях:

    Агата Муцениеце (Ника), Денис Кукояка (Тема), Дмитрий Астрахан (Палыч), Анна Легчилова (Люба), Ирина Чеснокова (Марина), Дмитрий Аверин (Коля), Михаил Грушевский (культовый комик), Стефания-Марьяна Гурская (Аня), Александр Шулико (Сэм), Степан Девонин (Глеб), Наталья Индейкина (Рита), Максим Литовченко (Дима)


  • История о паре, которой уже поздно встречаться, но рано жениться. Тёма и Ника вместе уже больше года и, им хорошо и весело вместе. Но они легкомысленные и не слишком серьезно ко всему относятся. Они не хотят повторять жизнь своих родителей: в 18 – первая работа, в 20 – свадьба, в 25 – семья и трое детей. Но чтобы доказать родителям и себе, что они готовы к самостоятельной жизни, Тёма и Ника решают съехаться — тем более у них есть бабушкина квартира Ники. Отец Ники терпеть не может Тёму, но разрешает им пожить в этой квартире. Всё было бы прекрасно, если бы эта квартира не находилась всего на несколько этажей ниже квартиры родителей Ники. Теперь их ждут все прелести взрослой жизни: поиски работы и еды, ссоры из-за глупостей, надоедливые богатые соседи и так далее. Сломит ли гражданский брак инфантильных и веселых Тёму и Нику? Или они научатся самостоятельной жизни и их любовь станет только крепче?
  • Рейтинг:



  • Качество: SATRip
  • Формат: :AVI
  • Видео кодек: XviD
  • Аудио кодек: MP3
  • Видео: 720x400 (16:9), 1649 kbps, 25 fps, 0,229 bpp
  • Аудио: 2.0 / 48 kHz / 192 kbps
  • Релиз от:

    Внимание! Раздача ведётся путём добавления новых серий; при каждом добавлении создаётся новый торрент. Чтобы начать докачку новой серии, пользователям необходимо сделать следующее:
    (1) остановить скачивание,
    (2) удалить старый торрент у себя из клиента (старые серии удалять не надо),
    (3) скачать новый торрент и запустить его у себя в клиенте вместо старого, при этом указать клиенту путь в старую папку куда и должно происходить скачивание новых серий.
    Ваш клиент при этом должен произвести хеширование (проверку) старой папки (если не производит сам - помогите ему сделать это), и будет докачивать только те серии которых у вас ещё нет. Старые серии при этом не удаляются, а продолжают раздаваться!
    Eсли вы уже удалили старые серии, то предотвратить повторную закачку старых серий можно, отжав галочку в соответствующих местах при запуске нового торрента. По возможности, желательно не удалять старые серии как можно дольше чтобы релизёр не столько продолжал раздавать старые серии, а смог сконцентрироваться на новых.

    General
    Complete name : H:\Grajdanskiy.brak.2017.SATRip.BigFANGroup\Grajdanskiy.brak.(03.seriya.iz.16).2016.SATRip.BigFANgroup.avi
    Format : AVI
    Format/Info : Audio Video Interleave
    File size : 309 MiB
    Duration : 23 min
    Overall bit rate : 1 852 kb/s
    Writing application : VirtualDubMod 1.5.10.3 | www.virtualdub-fr.org || (build 2550/release)
    Writing library : VirtualDubMod build 2550/release

    Video
    ID : 0
    Format : MPEG-4 Visual
    Format profile : Advanced Simple@L5
    Format settings, BVOP : 1
    Format settings, QPel : No
    Format settings, GMC : No warppoints
    Format settings, Matrix : Default (MPEG)
    Codec ID : XVID
    Codec ID/Hint : XviD
    Duration : 23 min
    Bit rate : 1 650 kb/s
    Width : 720 pixels
    Height : 400 pixels
    Display aspect ratio : 16:9
    Frame rate : 25.000 FPS
    Color space : YUV
    Chroma subsampling : 4:2:0
    Bit depth : 8 bits
    Scan type : Progressive
    Compression mode : Lossy
    Bits/(Pixel*Frame) : 0.229
    Stream size : 275 MiB (89%)
    Writing library : XviD 1.2.1 (UTC 2008-12-04)

    Audio
    ID : 1
    Format : MPEG Audio
    Format version : Version 1
    Format profile : Layer 3
    Codec ID : 55
    Codec ID/Hint : MP3
    Duration : 23 min
    Bit rate mode : Constant
    Bit rate : 192 kb/s
    Channel(s) : 2 channels
    Sampling rate : 48.0 kHz
    Compression mode : Lossy
    Stream size : 32.0 MiB (10%)
    Alignment : Aligned on interleaves
    Interleave, duration : 40 ms (1.00 video frame)
    Interleave, preload duration : 504 ms
    Writing library : LAME3.99r
    Encoding settings : -m s -V 4 -q 2 -lowpass 18.6 -b 192

    Скриншоты:
    скриншот   скриншот   скриншот   скриншот   скриншот   скриншот   скриншот  
    скриншот  

    Раздача ведётся путём добавления новых серий. Добавлена 16 серия (26.01.2017).Просьба перекачать торрент файл.

    pb.wtf



  • Скачать Гражданский брак через торрент http://i91.fastpic.ru/big/2017/0110/eb/a7081aa6a0114b7782f8308b3501eceb.jpg Скачать фильм Гражданский брак через торрент бесплантно в хорошем качестве qw.png История о паре, которой уже поздно встречаться, но рано жениться. Тёма и Ника вместе уже больше года и, им хорошо и весело вместе. ... 8.1 10 14
    Info! Золотая раздача, скачанное не засчитывается.
    Торрент: Зарегистрирован [2017-01-26 11:32] · скачан: 262 раз
    Статус: √ проверено
    Размер: 4.29 GB
    Как cкачать? Как скачать Гражданский брак через торрент | qTorrent

    % Раздел Тема Автор DL S | L
    Наши сериалы [ 8.68 GB ] Гражданский брак / Сезон 1 / Серии 1-16 из 16 [2017 Россия WEB-DL 720p] GEKADOL Скачать
    1 | 0


    Последний раз редактировалось: GEKADOL (2017-01-26 11:37), всего редактировалось 22 раз(а)

    28-11-2019 20:33  

    Отключить всю рекламу на сайте

    10-01-2017 07:15 Гражданский брак Скачать торрент  

    Из описания понятно, что клоуны-сценаристы не знают, что такое гражданский брак.pb.wtf



    12-01-2017 22:15 Гражданский брак Скачать торрент  

    SorT3R писал(а):

    Из описания понятно, что клоуны-сценаристы не знают, что такое гражданский брак.

    Истину глаголешь, раньше, то что сценаристы назвали гражданским браком, называлось блудом.
    Гражда́нский бра́к или светский брак — брачный союз, зарегистрированный и оформленный в соответствующих органах государственной власти без участия церкви
    pb.wtf



      Дорогой пользователь! Огромная просьба, поблагодарите релизера, оцените раздачу и оставьте свои комментарий, если Вы скачали Гражданский брак через торрент бесплатно! Внесите свою лепту в развитие PiratBit!
      Комментировать посты могут только пользователи прошедшие не сложную регистрацию
      Показать сообщения:    

      Гражданский брак через торрент
      Скачать бесплатно Гражданский брак
      Гражданский брак скачать торрент
      Гражданский брак смотреть онлайн
      Cкачать фильм Гражданский брак бесплатно
      Гражданский брак скачать торрент в хорошем качестве
      Гражданский брак смотреть онлайн бесплатно в хорошем качестве


      Вы не можете начинать темы
      Вы не можете отвечать на сообщения
      Вы не можете редактировать свои сообщения
      Вы не можете удалять свои сообщения
      Вы не можете голосовать в опросах
      Вы не можете прикреплять файлы к сообщениям
      Вы можете скачивать файлы