Ссылка на приватное зеркало нашего сайта всего за 1$. Внимание количество ограничено!!!

2 сезон

iTunes

1 сезон

1

iTunes

iTunes

iTunes

1 сезон

RePack

30

ИГРА 18+

pack

ВАЖНО

!!Акция!!

Alien_RageХит недели

RePack

MK11
pack

Забери бонус

RePack

jed

!!Акция!!

Alien_Rage

RePack

fifa19

RePack

Assassins Creed: Odyssey

RePack

NEED FOR SPEED™ PAYBACK

4 сезон

9 сезон

Бесстыжие 9 сезон

Все сериалы

все сериалы на PB.wtf

RePack

FAR CRY 5
  

Гражданский брак / Сезон 1 / Серии 1-16 из 16 (Дина Штурманова) [2017 , Россия, комедия, WEB-DL 720p] pb.wtf

Гражданский брак через торрент pb.wtf

Размер: 8.68 GB | Добавлен: 3 года 9 мес. назад | Торрент скачан:301 раз
Скачать  

10-01-2017 00:09 Гражданский брак Скачать торрент  

Гражданский брак


  • Год выпуска: 2017
  • Страна: Россия
  • Жанр: комедия
  • Продолжительность: 00:23:33 (Серия)
  • Перевод: Не требуется [Русский]
  • Режиссер: Дина Штурманова
  • В ролях:

    Агата Муцениеце (Ника), Денис Кукояка (Тема), Дмитрий Астрахан (Палыч), Анна Легчилова (Люба), Ирина Чеснокова (Марина), Дмитрий Аверин (Коля), Михаил Грушевский (культовый комик), Стефания-Марьяна Гурская (Аня), Александр Шулико (Сэм), Степан Девонин (Глеб), Наталья Индейкина (Рита), Максим Литовченко (Дима)


  • История о паре, которой уже поздно встречаться, но рано жениться. Тёма и Ника вместе уже больше года и, им хорошо и весело вместе. Но они легкомысленные и не слишком серьезно ко всему относятся. Они не хотят повторять жизнь своих родителей: в 18 – первая работа, в 20 – свадьба, в 25 – семья и трое детей. Но чтобы доказать родителям и себе, что они готовы к самостоятельной жизни, Тёма и Ника решают съехаться — тем более у них есть бабушкина квартира Ники. Отец Ники терпеть не может Тёму, но разрешает им пожить в этой квартире. Всё было бы прекрасно, если бы эта квартира не находилась всего на несколько этажей ниже квартиры родителей Ники. Теперь их ждут все прелести взрослой жизни: поиски работы и еды, ссоры из-за глупостей, надоедливые богатые соседи и так далее. Сломит ли гражданский брак инфантильных и веселых Тёму и Нику? Или они научатся самостоятельной жизни и их любовь станет только крепче?
  • Рейтинг:



  • Качество: WEB-DL 720p
  • Формат: :MKV
  • Видео кодек: AVC
  • Аудио кодек: AC3
  • Видео: 1280x720 (16:9), 3525 kbps, 25 fps, 0,153 bpp
  • Аудио: русский / 2.0 / 48 kHz / 192 kbps / ||
  • Релиз от: Nikolspup

    Внимание! Раздача ведётся путём добавления новых серий; при каждом добавлении создаётся новый торрент. Чтобы начать докачку новой серии, пользователям необходимо сделать следующее:
    (1) остановить скачивание,
    (2) удалить старый торрент у себя из клиента (старые серии удалять не надо),
    (3) скачать новый торрент и запустить его у себя в клиенте вместо старого, при этом указать клиенту путь в старую папку куда и должно происходить скачивание новых серий.
    Ваш клиент при этом должен произвести хеширование (проверку) старой папки (если не производит сам - помогите ему сделать это), и будет докачивать только те серии которых у вас ещё нет. Старые серии при этом не удаляются, а продолжают раздаваться!
    Eсли вы уже удалили старые серии, то предотвратить повторную закачку старых серий можно, отжав галочку в соответствующих местах при запуске нового торрента. По возможности, желательно не удалять старые серии как можно дольше чтобы релизёр не столько продолжал раздавать старые серии, а смог сконцентрироваться на новых.

    General
    Unique ID : 171946624479204698193707254920112827144 (0x815BB71D61BDF72893130C7EDD9CEB08)
    Complete name : H:\Grajdanskiy.brak.2017.WEB-DL.(720p).Nikolspup\Grajdanskiy.brak.(03.seriya).2017.WEB-DL.(720p).Nikolspup.mkv
    Format : Matroska
    Format version : Version 2
    File size : 639 MiB
    Duration : 23 min
    Overall bit rate : 3 793 kb/s
    Movie name : Grajdanskiy.brak.(03.seriya).2017.WEB-DL.(720p)@ release by Nikolspup
    Encoded date : UTC 2017-01-09 18:16:12
    Writing application : mkvmerge v5.8.0 ('No Sleep / Pillow') built on Sep 2 2012 15:37:04
    Writing library : libebml v1.2.3 + libmatroska v1.3.0

    Video
    ID : 1
    Format : AVC
    Format/Info : Advanced Video Codec
    Format profile : High@L3.1
    Format settings, CABAC : Yes
    Format settings, ReFrames : 1 frame
    Format settings, GOP : M=1, N=12
    Codec ID : V_MPEG4/ISO/AVC
    Duration : 23 min
    Bit rate : 3 525 kb/s
    Width : 1 280 pixels
    Height : 720 pixels
    Display aspect ratio : 16:9
    Frame rate mode : Constant
    Frame rate : 25.000 FPS
    Standard : Component
    Color space : YUV
    Chroma subsampling : 4:2:0
    Bit depth : 8 bits
    Scan type : Progressive
    Bits/(Pixel*Frame) : 0.153
    Stream size : 594 MiB (93%)
    Default : No
    Forced : No
    Color range : Limited

    Audio
    ID : 2
    Format : AC-3
    Format/Info : Audio Coding 3
    Mode extension : CM (complete main)
    Format settings, Endianness : Big
    Codec ID : A_AC3
    Duration : 23 min
    Bit rate mode : Constant
    Bit rate : 192 kb/s
    Channel(s) : 2 channels
    Channel positions : Front: L R
    Sampling rate : 48.0 kHz
    Frame rate : 31.250 FPS (1536 spf)
    Compression mode : Lossy
    Stream size : 32.4 MiB (5%)
    Language : Russian
    Default : Yes
    Forced : Yes

    Скриншоты:
    скриншот   скриншот   скриншот   скриншот   скриншот   скриншот   скриншот  
    скриншот  

    Раздача ведётся путём добавления новых серий. Добавлена 16 серия (27.01.2017).Просьба перекачать торрент файл.

    pb.wtf



  • Скачать Гражданский брак через торрент http://i89.fastpic.ru/big/2017/0110/40/b005a002d932ce9002e3541c126e7740.jpg Скачать фильм Гражданский брак через торрент бесплантно в хорошем качестве qw.png История о паре, которой уже поздно встречаться, но рано жениться. Тёма и Ника вместе уже больше года и, им хорошо и весело вместе. ... 9.1 10 22
    Info! Золотая раздача, скачанное не засчитывается.
    Торрент: Зарегистрирован [2017-01-27 00:38] · скачан: 301 раз
    Статус: √ проверено
    Размер: 8.68 GB
    Как cкачать? Как скачать Гражданский брак через торрент | qTorrent

    % Раздел Тема Автор DL S | L
    Наши сериалы [ 4.29 GB ] Гражданский брак / Сезон 1 / Серии 1-16 из 16 [2017 Россия SATRip] GEKADOL Скачать
    1 | 0


    Последний раз редактировалось: GEKADOL (2017-01-27 03:50), всего редактировалось 2 раз(а)

    28-11-2019 20:33  

    Отключить всю рекламу на сайте

    26-01-2017 19:53 Гражданский брак Скачать торрент  

    Спасибо,отличный лёгкий фильм!!!!!pb.wtf



    27-01-2017 00:39 Гражданский брак Скачать торрент  

    bubaRP писал(а):

    Спасибо,отличный лёгкий фильм!!!!!

    pb.wtf



      Дорогой пользователь! Огромная просьба, поблагодарите релизера, оцените раздачу и оставьте свои комментарий, если Вы скачали Гражданский брак через торрент бесплатно! Внесите свою лепту в развитие PiratBit!
      Комментировать посты могут только пользователи прошедшие не сложную регистрацию
      Показать сообщения:    

      Гражданский брак через торрент
      Скачать бесплатно Гражданский брак
      Гражданский брак скачать торрент
      Гражданский брак смотреть онлайн
      Cкачать фильм Гражданский брак бесплатно
      Гражданский брак скачать торрент в хорошем качестве
      Гражданский брак смотреть онлайн бесплатно в хорошем качестве


      Вы не можете начинать темы
      Вы не можете отвечать на сообщения
      Вы не можете редактировать свои сообщения
      Вы не можете удалять свои сообщения
      Вы не можете голосовать в опросах
      Вы не можете прикреплять файлы к сообщениям
      Вы можете скачивать файлы