Ссылка на приватное зеркало нашего сайта всего за 1$. Внимание количество ограничено!!!

2 сезон

iTunes

1 сезон

1

2 сезон

2 сезон

iTunes

1 сезон

RePack

30

Новинка

ВАЖНО

ИГРА 18+

pack

RePack

MK11
pack

Забери бонус

RePack

jed

!!Акция!!

Alien_Rage

RePack

fifa19

RePack

Assassins Creed: Odyssey

RePack

NEED FOR SPEED™ PAYBACK

4 сезон

9 сезон

Бесстыжие 9 сезон

Все сериалы

все сериалы на PB.wtf

RePack

FAR CRY 5
  

Сонная лощина / Sleepy Hollow / Сезон 4 / Серии 13 из 13 (Кен Олин, Эрнест Р. Дикерсон, Пол А. Эдвардс) [2017 г., фэнтези, триллер, драма, детектив, приключения, WEB-DLRip] MVO (LostFilm) pb.wtf

Сонная лощина через торрент pb.wtf

Размер: 6.18 GB | Добавлен: 3 года 7 мес. назад | Торрент скачан:25 раз
Скачать  

10-01-2017 06:05 Сонная лощина Скачать торрент  

Сонная лощина / Sleepy Hollow
Год выпуска: 2016
Страна: США
Жанр: фэнтези, триллер, драма, детектив, приключения
Продолжительность: ~ 00:44:00 серия
Перевод: Профессиональный (многоголосый) LostFilm

Режиссер: Кен Олин, Эрнест Р. Дикерсон, Пол А. Эдвардс

rating

В ролях: Том Мисон, Николь Бехари, Орландо Джонс, Катя Винтер, Линди Гринвуд, Джон Чо, Джон Ноубл, Николас Гонсалес, Д.Дж. Миффлин, Клэнси Браун, Джилл Мари Джонс, Амандла Стенберг, Дерек Мирс, Майкл Роарк, Тимоти Басфилд, Нил Джексон, Сакина Джаффри, Ричард Цетрон

Описание: Бывает так, что после своей смерти вы просыпаетесь аж через 250 лет в далеком будущем, где мир находится в полной опасности. В нем происходят необъяснимые события и ваша роль спасти человечество. Речь идет о Сонной Лощине, небольшом городишке. Наш главный герой Икабод Крэйн восстает для того чтобы разобраться в тайне, которая была покрыта мраком еще с прошлых времен. Вместе с ним оживает и так называемый Всадник без головы, который начинает убивать жителей Лощины. Икабод не понаслышке знает о нем, ведь именно он в битве отрубил ему голову и данный убийца является одним из представителей Всадников Апокалипсиса. Наш герой чувствует себя очень неловко в современном мире, но вместе с Эбби Миллс, которая верит в существование сверхъестественных сил Икабод собирается бороться со злом. Они составляют прекрасный дуэт: он имеет отличные знания давней истории Америки, она прекрасный психолог и оценщик потенциальной угрозы.


Качество: WEB-DLRip
Формат: AVI
Видео кодек: XviD
Аудио кодек: AC3
Видео: ~ 1139 kbps, 720x400, 23,976 fps, 0,204 bpp
Аудио#1: mp3, 2 ch, 48.0 KHz, 192 kbps





General
Complete name : D:\Загрузка\Torrent\Сонная лощина (6 сезон) - LostFilm.TV\S04E01.Колумбия.avi
Format : AVI
Format/Info : Audio Video Interleave
File size : 424 MiB
Duration : 44 min
Overall bit rate mode : Variable
Overall bit rate : 1 340 kb/s
Writing application : Nandub v1.0rc2
Writing library : Nandub build 1853/release

Video
ID : 0
Format : MPEG-4 Visual
Format profile : Advanced Simple@L5
Format settings, BVOP : No
Format settings, QPel : No
Format settings, GMC : No warppoints
Format settings, Matrix : Default (MPEG)
Codec ID : XVID
Codec ID/Hint : XviD
Duration : 44 min
Bit rate : 1 139 kb/s
Width : 720 pixels
Height : 400 pixels
Display aspect ratio : 16:9
Frame rate : 23.976 (23976/1000) FPS
Color space : YUV
Chroma subsampling : 4:2:0
Bit depth : 8 bits
Scan type : Progressive
Compression mode : Lossy
Bits/(Pixel*Frame) : 0.165
Stream size : 360 MiB (85%)
Writing library : XviD 1.2.1 (UTC 2008-12-04)

Audio
ID : 1
Format : MPEG Audio
Format version : Version 1
Format profile : Layer 3
Mode : Joint stereo
Mode extension : MS Stereo
Codec ID : 55
Codec ID/Hint : MP3
Duration : 44 min
Bit rate mode : Variable
Bit rate : 192 kb/s
Channel(s) : 2 channels
Sampling rate : 48.0 kHz
Compression mode : Lossy
Stream size : 59.6 MiB (14%)
Alignment : Aligned on interleaves
Interleave, duration : 24 ms (0.58 video frame)
Interleave, preload duratio : 463 ms
Writing library : LAME3.97b
Encoding settings : -m j -V 4 -q 3 -lowpass 18.6 --abr 192

  • Остановить скачивание
  • Удалить старый торрент у себя из клиента (старые серии удалять не надо)
  • Скачать новый торрент и запустить его у себя в клиенте вместо старого, при этом указать клиенту путь в старую папку куда и должно происходить скачивание новых серий.

    Ваш клиент при этом должен произвести хеширование (проверку) старой папки (если не производит сам - помогите ему сделать это), и будет докачивать только те серии которых у вас ещё нет. Старые серии при этом не удаляются, а продолжают раздаваться!

    Eсли вы уже удалили старые серии, то предотвратить повторную закачку старых серий можно, отжав галочку в соответсвующих местах при запуске нового торрента. По возможности, желательно не удалять старые серии как можно дольше чтобы релизёр не столько продолжал раздавать старые серии, а смог сконцентрироваться на новых.
  • Оформление:Alex_EДобавлена 13 финальная серия (03.04.2017)Просьба перекачать торрентСериал закрыт! pb.wtf



    Скачать Сонная лощина через торрент http://pic.kartinco.top/images/11/d3tnb.jpg Скачать фильм Сонная лощина через торрент бесплантно в хорошем качестве Описание: Бывает так, что после своей смерти вы просыпаетесь аж через 250 лет в далеком будущем, где мир находится в полной опасности. В ... 8.8 10 13
    Info! Серебряная раздача, засчитывается только 50% скачанного.
    Торрент: Зарегистрирован [2017-04-03 06:15] · скачан: 25 раз
    Статус: √ проверено
    Размер: 6.18 GB
    Как cкачать? Как скачать Сонная лощина через торрент | qTorrent

    % Раздел Тема Автор DL S | L
    Зарубежные сериалы [ 29.64 GB ] Сонная Лощина / Sleepy Hollow / Сезон: 1-4 / Серии: 1-62 из 62 [2013-2017 WEB-DLRip] MVO [LostFilm] bober100 Скачать
    1 | 0


    Последний раз редактировалось: Alex_E (2017-05-25 07:44), всего редактировалось 14 раз(а)

    28-11-2019 20:33  

    Отключить всю рекламу на сайте

    30-01-2017 11:13 Сонная лощина Скачать торрент  

    Как фильм?pb.wtf



    06-02-2017 10:50 Сонная лощина Скачать торрент  

    pb.wtf



    20-02-2017 11:07 Сонная лощина Скачать торрент  

    А правда, что в этом сериале Всадник научился использовать современное огнестрельное оружие?pb.wtf



    20-02-2017 17:27 Сонная лощина Скачать торрент  

    Sinc037 писал(а):

    А правда, что в этом сериале Всадник научился использовать современное огнестрельное оружие?

    именно с этого момента где всадник открыл огонь с автомата М-16 желание смотреть его пропало, а начало таки заинтреговало.pb.wtf



    27-02-2017 11:16 Сонная лощина Скачать торрент  

    Смотрю этот сериал из-за уважения к Алексу Куртсману и Роберто Орчи !!!
    А так, слабоват сериал .
    Автору темы спасибо ! pb.wtf



    03-05-2017 15:15 Сонная лощина Скачать торрент  

    Кто знает, когда новые серии будут?pb.wtf



      Дорогой пользователь! Огромная просьба, поблагодарите релизера, оцените раздачу и оставьте свои комментарий, если Вы скачали Сонная лощина через торрент бесплатно! Внесите свою лепту в развитие PiratBit!
      Комментировать посты могут только пользователи прошедшие не сложную регистрацию
      Показать сообщения:    

      Сонная лощина через торрент
      Скачать бесплатно Сонная лощина
      Сонная лощина скачать торрент
      Сонная лощина смотреть онлайн
      Cкачать фильм Сонная лощина бесплатно
      Сонная лощина скачать торрент в хорошем качестве
      Сонная лощина смотреть онлайн бесплатно в хорошем качестве


      Вы не можете начинать темы
      Вы не можете отвечать на сообщения
      Вы не можете редактировать свои сообщения
      Вы не можете удалять свои сообщения
      Вы не можете голосовать в опросах
      Вы не можете прикреплять файлы к сообщениям
      Вы можете скачивать файлы