Всегда рабочее зеркало без VPN и Proxy просто перед .vidak.icu напиши любое слово или цифру, Пример http://vc0f.vidak.icu

MVO

2 сезон

2 сезон

1

1 сезон

iTunes

2 сезон

13

1 сезон

Deluxe

pack

Рекомендуем

Пиратка

30

ВАЖНО

RePack

MK11

RePack

jed

RePack

fifa19

RePack

RDR2

RePack

NEED FOR SPEED™ PAYBACK

Кинопоиск HD

6 сезон

 Острые козырьки 6 сезон

Все сериалы

все сериалы на PB.wtf

RePack

FAR CRY 5

Anonymous, нам критически не хватает 5601 руб. на оплату серверов и переферии за Апрель, помоги нам пожалуйста, вся надежда только на тебя. В благодарность мы отключим тебе всю рекламу на сайте!

×
  
Magnet ссылка

Детективы / Серии: 1-100 из 100 (Фирдавс Зайнутдинов) [2016, Детектив, SATRip] pb.wtf

Детективы через торрент pb.wtf

Размер: 39.12 GB | Добавлен: 5 лет 4 мес. назад | Торрент скачан:10 раз
Смотреть онлайн Детективы | Скачать    Ребята, помогите собрать деньги на оплату серверов!!!

10-01-2017 10:48 Детективы Скачать торрент  


Детективы Год выпуска: 2016
Производство: Россия, Компания "ТелеФормат"
Жанр: Детектив
Продолжительность: 00:31:00
Субтитры: нет

Режиссёр: Фирдавс Зайнутдинов

В ролях: Алексей Насонов, Игорь Лукин, Роман Санин, Наталья Русинова, Юрий Гумиров

Описание: "Детективы" – так называется частное сыскное агентство. Клиенты обращаются в него тогда, когда надо буквально "докопаться" до правды, когда нужен не просто правовой совет, но активная помощь. И когда надежды или желания обращаться в милицию по вполне понятным причинам быть не может. В интересах клиентов сотрудники "Детективов" разыскивают свидетелей, выезжают на место событий, с помощью современной техники добывают необходимые доказательства. Напряженное молниеносное расследование всякий раз приводит к результатам, неожиданным для клиентов, самих сыщиков и зрителей.
01. Свадебный удар
02. 18+
03. Месть старой актрисы
04. Мама для мамонта
05. Окрошка с квасом
06. У синий реки
07. Мальчик с девочкой дружил
08. Железное колечко
09. Прощеный грех
10. Любовь к живописи
11. Поддельный дед
12. Привет с вершины гор
13 Дым
14 Удар в голову
15 Свет в окошке
16 Все просто
17 Бесы уха
18 Бриллиант души
19 Танец на краю
20 Охотница
21 Штучная вещь
22 Модный цвет
23 Ни за что
24 Ночная лихорадка
25 Дочки, внучки
26 Травма
27 Мой ласковый убийца
28 Палки в колеса
29 Всегда третья
30 Родня по номиналу
31 Грузовичок с секретом
32 Хорошая девочка
33 Хрупкое счастье
34 Обстоятельства смерти
35 Черная кошка и белый кот
36 Потеряшка
37 Танцы на шпильках
38 Борец за справедливость
39 Великий комбинатор
40 Овощ
41 НЛО
42 Жгучая ревность
43 Два ноль
44 Санитарный день
45 Деревенский Маугли
46 В объятиях Морфея
47 Злая ведьма
48 Любовь здесь больше не живет
49 Джонни, Джонни
50 Месть фурии
51 Приживалка
52 Сватовство
53 Тело исчезает в полночь
54 Лицом к лицу
55 Бессеребреник
56 Разрыв
57 Они будут вместе
58 Велопрогулка
59 Недовольные пациенты
60 Дурная дача
61 Личный киллер
62 Черный пистолет
63 В понедельник отдохнем
64 Дыхание смерти
65. Лебединое озеро
66. Бабкин ребус
67. Кровавый уикэнд
68. Не игрушка
69. Страсти старого дома
70. Детский плач
71. Старая любовь
72. Отцовская доля
73. Инкунабула
74. Идейное насилие
75. Пропала мама, кот и собака
76. Смерть приходит в красном
77. Я докажу тебе любовь
78. Пропавшая
79. Ревнивый муж
80. Фабрика обманок
81. Без памяти
82. Окно смерти
83. Последний фаворит
84. Лишний сын
85. Успеть за ночь
86. Безоблачные дни
87. Соколиная охота
88. Фантом
89. Новоселье
90. Короткое замыкание
91. Рай в мираже
92. Моя семья и булочки
93. Секретики
94. Аниматор
95. Липа
96. А что было вчера
97. Петля
98. Ясные глаза
99. Семечки
100. Чужеземка
Доп. информация: Релиз группа

Все раздачи сериала: и
Сэмпл
Качество: SATRip
Формат: AVI
Видео кодек: XviD
Аудио кодек: АС3
Видео: 720x400 (1.80:1), 25 fps, XviD build 50 ~1494 kbps avg, 0.21 bit/pixel
Аудио: 48 kHz, AC3 Dolby Digital, 2/0 (L,R) ch, ~192.00 kbps avg
General
Complete name : X:\раздачи\Detektivy.2016.SATRip.RG.Russkie.serialy.&.Files-x\01.Detektivy.2016.SATRip.RG.Russkie.serialy.&.Files-x.avi
Format : AVI
Format/Info : Audio Video Interleave
File size : 401 MiB
Duration : 32mn 5s
Overall bit rate : 1 746 Kbps
Writing application : VirtualDubMod 1.5.10.3 | www.virtualdub-fr.org || (build 2550/release)
Writing library : VirtualDubMod build 2550/release
Video
ID : 0
Format : MPEG-4 Visual
Format profile : Advanced Simple@L5
Format settings, BVOP : 1
Format settings, QPel : No
Format settings, GMC : No warppoints
Format settings, Matrix : Custom
Codec ID : XVID
Codec ID/Hint : XviD
Duration : 32mn 5s
Bit rate : 1 544 Kbps
Width : 720 pixels
Height : 400 pixels
Display aspect ratio : 16:9
Frame rate : 25.000 fps
Color space : YUV
Chroma subsampling : 4:2:0
Bit depth : 8 bits
Scan type : Progressive
Compression mode : Lossy
Bits/(Pixel*Frame) : 0.214
Stream size : 354 MiB (88%)
Writing library : XviD 73
Audio
ID : 1
Format : AC-3
Format/Info : Audio Coding 3
Mode extension : CM (complete main)
Format settings, Endianness : Big
Codec ID : 2000
Duration : 32mn 5s
Bit rate mode : Constant
Bit rate : 192 Kbps
Channel(s) : 2 channels
Channel positions : Front: L R
Sampling rate : 48.0 KHz
Frame rate : 31.250 fps (1536 spf)
Compression mode : Lossy
Stream size : 44.1 MiB (11%)
Alignment : Split accross interleaves
Interleave, duration : 40 ms (1.00 video frame)
Interleave, preload duratio : 500 ms
Внимание! Раздача ведётся путём добавления новых серий; при каждом добавлении создётся новый торрент. Чтобы начать докачку новой серии, пользователям необходимо сделать следующее:
(1) остановить скачивание,
(2) удалить старый торрент у себя из клиента (старые серии удалять не надо),
(3) скачать новый торрент и запустить его у себя в клиенте вместо старого, при этом указать клиенту путь в старую папку куда и должно происходить скачивание новых серий.
Ваш клиент при этом должен произвести хеширование (проверку) старой папки (если не производит сам - помогите ему сделать это), и будет докачивать только те серии которых у вас ещё нет. Старые серии при этом не удаляются, а продолжают раздаваться!
Eсли вы уже удалили старые серии, то предотвратить повторную закачку старых серий можно, отжав галочку в соответствующих местах при запуске нового торрента.
pb.wtf



Скачать Детективы через торрент http://i58.fastpic.ru/big/2013/1010/ec/e3125e7d9ab546576eef6750c1860eec.jpg Скачать, смотреть онлайн Детективы бесплантно в хорошем качестве Описание: "Детективы" – так называется частное сыскное агентство. Клиенты обращаются в него тогда, когда надо буквально "докопаться" до ... 8 10 2
Торрент: Зарегистрирован [2017-01-10 10:50] · скачан: 10 раз
Статус: T временная
Размер: 39.12 GB
Как cкачать? Как скачать Детективы через торрент | UTorrent

28-11-2019 20:33  

Отключить всю рекламу на сайте

    Дорогой пользователь! Огромная просьба, поблагодарите релизера, оцените раздачу и оставьте свои комментарий, если Вы скачали Детективы через торрент бесплатно!
    Комментировать посты могут только пользователи прошедшие не сложную регистрацию
    Показать сообщения:    

    Детективы через торрент
    Скачать бесплатно Детективы
    Детективы скачать торрент
    Детективы смотреть онлайн
    Cкачать фильм Детективы бесплатно
    Детективы скачать торрент в хорошем качестве
    Детективы смотреть онлайн бесплатно в хорошем качестве


    Вы не можете начинать темы
    Вы не можете отвечать на сообщения
    Вы не можете редактировать свои сообщения
    Вы не можете удалять свои сообщения
    Вы не можете голосовать в опросах
    Вы не можете прикреплять файлы к сообщениям
    Вы можете скачивать файлы