Ссылка на приватное зеркало нашего сайта всего за 1$. Внимание количество ограничено!!!

2 сезон

iTunes

1 сезон

1

2 сезон

2 сезон

iTunes

1 сезон

RePack

30

Ultimate

ВАЖНО

ИГРА 18+

pack

RePack

MK11
pack

Забери бонус

RePack

jed

!!Акция!!

Alien_Rage

RePack

fifa19

RePack

Assassins Creed: Odyssey

RePack

NEED FOR SPEED™ PAYBACK

4 сезон

9 сезон

Бесстыжие 9 сезон

Все сериалы

все сериалы на PB.wtf

RePack

FAR CRY 5
  

Табу / Taboo / Сезон: 1 / Серии: 1-8 из 8 (Андерс Энгстрем, Кристоффер Нюхольм) [2017, Драма, HDTVRip 1080p] [MVO] (Jaskier) pb.wtf

Табу через торрент pb.wtf

Размер: 30.9 GB | Добавлен: 3 года 8 мес. назад | Торрент скачан:109 раз
Скачать  

10-01-2017 19:52 Табу Скачать торрент  


Табу / Taboo


Год выпуска: 2017
Страна: Великобритания, США
Жанр: Драма
Продолжительность: 1x ~00:55:00
Перевод: Профессиональный (многоголосый закадровый) Студия Jaskier
Субтитры: Нет

Режиссёр: Андерс Энгстрем, Кристоффер Нюхольм

В ролях: Том Харди, Лео Билл, Уна Чаплин, Ричард Диксон, Дэвид Хейман, Майкл Келли, Дэнни Лигаири, Джонатан Прайс, Рой Торн, Скрубиус Пип и др.

Описание: Искатель приключений Джеймс Кезиах Делейни строит свою собственную корабельную империю в начале 1800-х годов.
rating Сэмпл

Качество: HDTVRip 1080p
Формат: MKV
Видео кодек: AVC
Аудио кодек: AC3
Видео: 1920x1080 (16:9), 25.000 fps, ~8540kbps, ~0.165 bit/pixel
Аудио 1: Dolby AC3 48000Hz 5.1 384Kbps Русский
Аудио 2: Dolby AC3 48000Hz 5.1 384Kbps Оригинал (Английский)
General
Unique ID : 236829285137083033382076075635575954359 (0xB22BA94418EBFF10B406AE8747691BB7)
Complete name : E:\Taboo. Season 1 (HDTV l 1080p l Jaskier)\Taboo.S01E02.1080p.HDTVRip.DD5.1.x264-Jaskier.mkv
Format : Matroska
Format version : Version 2
File size : 3.79 GiB
Duration : 57mn 4s
Overall bit rate : 9 497 Kbps
Encoded date : UTC 2017-01-16 03:34:26
Writing application : mkvmerge v5.4.0 ('Piper') built on Mar 10 2012 13:34:39
Writing library : libebml v1.2.3 + libmatroska v1.3.0

Video
ID : 1
Format : AVC
Format/Info : Advanced Video Codec
Format profile : High@L4.1
Format settings, CABAC : Yes
Format settings, ReFrames : 4 frames
Codec ID : V_MPEG4/ISO/AVC
Duration : 57mn 4s
Bit rate : 8 540 Kbps
Width : 1 920 pixels
Height : 1 080 pixels
Display aspect ratio : 16:9
Frame rate mode : Constant
Frame rate : 25.000 fps
Color space : YUV
Chroma subsampling : 4:2:0
Bit depth : 8 bits
Scan type : Progressive
Bits/(Pixel*Frame) : 0.165
Stream size : 3.40 GiB (90%)
Writing library : x264 core 148 r2744 b97ae06
Encoding settings : cabac=1 / ref=4 / deblock=1:0:0 / analyse=0x3:0x113 / me=hex / subme=8 / psy=1 / psy_rd=1.00:0.00 / mixed_ref=1 / me_range=16 / chroma_me=1 / trellis=2 / 8x8dct=1 / cqm=0 / deadzone=21,11 / fast_pskip=1 / chroma_qp_offset=-2 / threads=6 / lookahead_threads=1 / sliced_threads=0 / nr=0 / decimate=1 / interlaced=0 / bluray_compat=0 / constrained_intra=0 / bframes=3 / b_pyramid=2 / b_adapt=1 / b_bias=0 / direct=3 / weightb=1 / open_gop=0 / weightp=2 / keyint=250 / keyint_min=25 / scenecut=40 / intra_refresh=0 / rc_lookahead=50 / rc=crf / mbtree=1 / crf=17.0 / qcomp=0.60 / qpmin=0 / qpmax=69 / qpstep=4 / ip_ratio=1.40 / aq=1:1.00
Default : Yes
Forced : No
Color range : Limited
Color primaries : BT.709
Transfer characteristics : BT.709
Matrix coefficients : BT.709

Audio #1
ID : 2
Format : AC-3
Format/Info : Audio Coding 3
Mode extension : CM (complete main)
Format settings, Endianness : Big
Codec ID : A_AC3
Duration : 57mn 4s
Bit rate mode : Constant
Bit rate : 384 Kbps
Channel(s) : 6 channels
Channel positions : Front: L C R, Side: L R, LFE
Sampling rate : 48.0 KHz
Compression mode : Lossy
Stream size : 157 MiB (4%)
Language : Russian
Default : Yes
Forced : No

Audio #2
ID : 3
Format : AC-3
Format/Info : Audio Coding 3
Mode extension : CM (complete main)
Format settings, Endianness : Big
Codec ID : A_AC3
Duration : 57mn 4s
Bit rate mode : Constant
Bit rate : 384 Kbps
Channel(s) : 6 channels
Channel positions : Front: L C R, Side: L R, LFE
Sampling rate : 48.0 KHz
Compression mode : Lossy
Delay relative to video : 11ms
Stream size : 157 MiB (4%)
Language : English
Default : No
Forced : No
Внимание! Раздача ведётся путём добавления новых серий; при каждом добавлении создётся новый торрент. Чтобы начать докачку новой серии, пользователям необходимо сделать следующее:
Остановить скачивание.
Удалить старый торрент у себя из клиента (старые серии удалять не надо).
Скачать новый торрент и запустить его у себя в клиенте вместо старого, при этом указать клиенту путь в старую папку куда и должно происходить скачивание новых серий.
Ваш клиент при этом должен произвести хеширование (проверку) старой папки (если не производит сам - помогите ему сделать это), и будет докачивать только те серии которых у вас ещё нет. Старые серии при этом не удаляются, а продолжают раздаваться!
Eсли вы уже удалили старые серии, то предотвратить повторную закачку старых серий можно, отжав галочку в соответсвующих местах при запуске нового торрента. По возможности, желательно не удалять старые серии как можно дольше чтобы релизёр не столько продолжал раздавать старые серии, а смог сконцентрироваться на новых.
pb.wtf



Скачать Табу через торрент http://i90.fastpic.ru/big/2017/0109/79/650051978dadc0d9e4651cda01cfe079.jpg Скачать фильм Табу через торрент бесплантно в хорошем качестве Описание: Искатель приключений Джеймс Кезиах Делейни строит свою собственную корабельную империю в начале 1800-х годов. ... 8.6 10 7
Info! Золотая раздача, скачанное не засчитывается.
Торрент: Зарегистрирован [2017-02-27 11:41] · скачан: 109 раз
Статус: √ проверено
Размер: 30.9 GB
Как cкачать? Как скачать Табу через торрент | qTorrent

% Раздел Тема Автор DL S | L
Зарубежные сериалы [ 7.6 GB ] Табу / Taboo / Сезон: 1 / Серии: 1-8 из 8 [2017 BDRip] [MVO] killermax2013 Скачать
1 | 0
Зарубежные сериалы [ 5.14 GB ] Табу / Taboo / Сезон: 1 / Серии: 1-8 из 8 [2017 WEB-DLRip] [MVO] killermax2013 Скачать
1 | 0
Зарубежные сериалы [ 7.46 GB ] Табу / Taboo / Сезон 1 / Серии 1-8 из 8 [2017 WEB-DLRip-AVC] многоголосый [NewStudio] от ExKinoRay Enigma2010 Скачать
1 | 0
Зарубежные сериалы [ 19.88 GB ] Табу / Taboo / Сезон: 1 / Серии: 8 из 8 [2017 WEB-DL 1080p] MVO Ворон Скачать
1 | 0
Фильмы с украинским озвучиванием [ 4.4 GB ] Табу / Taboo / Сезон: 1 / Серии: 1-8 из 8 [2017 WEB-DLRip] [Ukr MVO] killermax2013 Скачать
1 | 0
Зарубежные сериалы [ 10.31 GB ] Табу / Taboo / Сезон: 1 / Серии: 1-8 из 8 [2017 WEBRip 720p / HDTVRip 720p] [DVO] killermax2013 Скачать
2 | 0
Зарубежные сериалы [ 7.42 GB ] Табу / Taboo / Сезон: 1 / Серии: 1-8 из 8 [2017 HDTVRip 720p] [Sub Rus] killermax2013 Скачать
1 | 0


Последний раз редактировалось: killermax2013 (2017-02-27 11:40), всего редактировалось 8 раз(а)

28-11-2019 20:33  

Отключить всю рекламу на сайте

16-01-2017 10:02 Табу Скачать торрент  

+2pb.wtf



16-01-2017 17:41 Табу Скачать торрент  

кто-нибудь знает где русские субтитры взять?pb.wtf



24-01-2017 15:19 Табу Скачать торрент  

+3pb.wtf



30-01-2017 11:24 Табу Скачать торрент  

+4pb.wtf



06-02-2017 17:53 Табу Скачать торрент  

+5pb.wtf



14-02-2017 17:03 Табу Скачать торрент  

+6pb.wtf



27-02-2017 11:41 Табу Скачать торрент  

+7-8. Сезон завершенpb.wtf



27-02-2017 12:13 Табу Скачать торрент  

killermax2013 писал(а):

+7-8. Сезон завершен

Норм сериал pb.wtf



    Дорогой пользователь! Огромная просьба, поблагодарите релизера, оцените раздачу и оставьте свои комментарий, если Вы скачали Табу через торрент бесплатно! Внесите свою лепту в развитие PiratBit!
    Комментировать посты могут только пользователи прошедшие не сложную регистрацию
    Показать сообщения:    

    Табу через торрент
    Скачать бесплатно Табу
    Табу скачать торрент
    Табу смотреть онлайн
    Cкачать фильм Табу бесплатно
    Табу скачать торрент в хорошем качестве
    Табу смотреть онлайн бесплатно в хорошем качестве


    Вы не можете начинать темы
    Вы не можете отвечать на сообщения
    Вы не можете редактировать свои сообщения
    Вы не можете удалять свои сообщения
    Вы не можете голосовать в опросах
    Вы не можете прикреплять файлы к сообщениям
    Вы можете скачивать файлы