Ссылка на приватное зеркало нашего сайта всего за 1$. Внимание количество ограничено!!!

2 сезон

iTunes

1 сезон

1

iTunes

iTunes

iTunes

1 сезон

RePack

30

ИГРА 18+

pack

ВАЖНО

!!Акция!!

Alien_RageХит недели

RePack

MK11
pack

Забери бонус

RePack

jed

!!Акция!!

Alien_Rage

RePack

fifa19

RePack

Assassins Creed: Odyssey

RePack

NEED FOR SPEED™ PAYBACK

4 сезон

9 сезон

Бесстыжие 9 сезон

Все сериалы

все сериалы на PB.wtf

RePack

FAR CRY 5
  

Три королевы / 1-8 серии из 8 (Каринэ Фолиянц) [2016 г., драма, мелодрама, детектив, HDTV 1080i] pb.wtf

Три королевы через торрент pb.wtf

Размер: 19.79 GB | Добавлен: 3 года 9 мес. назад | Торрент скачан:18 раз
Скачать  

10-01-2017 21:30 Три королевы Скачать торрент  

Три королевы
Год выпуска: 2016
Страна: Россия
Жанр: драма, мелодрама, детектив
Всего серий: 8
Продолжительность: 8 х ~ 00:50:00
Перевод: Не требуется [Русский]
Субтитры: отсутствуют

Режиссер: Каринэ Фолиянц



В ролях:

Денис Васильев, Александра Власова, Станислав Бондаренко, Софья Лебедева (II), Елена Ксенофонтова, Николай Добрынин, Сергей Соцердотский, Вадим Андреев, Максим Битюков, Вячеслав Гришечкин, Евгений Коряковский, Анатолий Бобер, Игорь Трошин, Виталий Таганов, Людмила Кара-Гяур

Описание:

«Три королевы» – именно так Михаил Погодин, директор и владелец винного завода города Черноморска, хотел назвать марку своего нового вина, но не успел... Его нашли мёртвым в своей квартире. Виктор, его сын, возвращается в родной город и решает разобраться в причинах смерти отца и сохранить семейный бизнес.


Качество: HDTV 1080i
Формат: TS
Видео кодек: H.264
Аудио кодек: AC3/MP3

Видео: 1920х1080 (16:9), 25 fps, AVC MPEG-4 (x264), Main@L4.0 ~ 6 295 kbps avg, 0.121 bit/pixel
Аудио#1: 48 kHz, AC3, 6 ch, ~384.00 kbps avg
Аудио#2: 48 kHz, MPEG Layer 3, 2 ch, ~192.00 kbps avg
General
ID : 1 (0x1)
Complete name : E:\Загруженные\Tri korolevy.HDTV(1080i).GeneralFilm\Tri korolevy.01.HDTV(1080i).GeneralFilm.ts
Format : MPEG-TS
File size : 2.60 GiB
Duration : 51mn 27s
Overall bit rate mode : Variable
Overall bit rate : 7 234 Kbps

Video
ID : 1904 (0x770)
Menu ID : 80 (0x50)
Format : AVC
Format/Info : Advanced Video Codec
Format profile : High@L4.0
Format settings, CABAC : Yes
Format settings, ReFrames : 3 frames
Codec ID : 27
Duration : 51mn 27s
Bit rate : 6 295 Kbps
Width : 1 920 pixels
Height : 1 080 pixels
Display aspect ratio : 16:9
Frame rate : 25.000 fps
Standard : Component
Color space : YUV
Chroma subsampling : 4:2:0
Bit depth : 8 bits
Scan type : Interlaced
Scan order : Top Field First
Bits/(Pixel*Frame) : 0.121
Stream size : 2.26 GiB (87%)
Color primaries : BT.709
Transfer characteristics : BT.709
Matrix coefficients : BT.709
Color range : Limited

Audio #1
ID : 2904 (0xB58)
Menu ID : 80 (0x50)
Format : AC-3
Format/Info : Audio Coding 3
Mode extension : CM (complete main)
Format settings, Endianness : Big
Codec ID : 6
Duration : 51mn 27s
Bit rate mode : Constant
Bit rate : 384 Kbps
Channel(s) : 6 channels
Channel positions : Front: L C R, Side: L R, LFE
Sampling rate : 48.0 KHz
Bit depth : 16 bits
Compression mode : Lossy
Delay relative to video : -120ms
Stream size : 141 MiB (5%)
Language : Russian

Audio #2
ID : 2905 (0xB59)
Menu ID : 80 (0x50)
Format : MPEG Audio
Format version : Version 1
Format profile : Layer 2
Codec ID : 3
Duration : 51mn 27s
Bit rate mode : Constant
Bit rate : 192 Kbps
Channel(s) : 2 channels
Sampling rate : 48.0 KHz
Compression mode : Lossy
Delay relative to video : -120ms
Stream size : 70.7 MiB (3%)
Language : Russian
скриншот   скриншот   скриншот   скриншот  
pb.wtf



Скачать Три королевы через торрент http://pic1.kartinco.top/images/11/9pkd1.jpg Скачать фильм Три королевы через торрент бесплантно в хорошем качестве Описание: «Три королевы» – именно так Михаил Погодин, директор и владелец винного завода города Черноморска, хотел назвать марку своего ... 10 10 2
Торрент: Зарегистрирован [2017-01-10 21:30] · скачан: 18 раз
Статус: √ проверено
Размер: 19.79 GB
Как cкачать? Как скачать Три королевы через торрент | qTorrent

% Раздел Тема Автор DL S | L
Наши сериалы [ 11.9 GB ] Ловушка для королевы / Сезон: 1 / Серии: 1-8 из 8 [2019 HDTVRip 720p] bober100 Скачать
1 | 0
Наши сериалы [ 20.91 GB ] Ловушка для королевы / Сезон: 1 / Серии: 1-8 из 8 [2019 HDTV 1080p] bober100 Скачать
1 | 0
Наши сериалы [ 5.47 GB ] Ловушка для королевы / Серий: 1 - 8 из 8 [2019 WEB-DLRip] Леонид Ильич Скачать
1 | 0
Наши сериалы [ 5.18 GB ] Ловушка для королевы / Серии: 1-8 из 8 [2019 SATRip-AVC] aleksan55 Скачать
1 | 0
T Релизы по Парсеру [Игры, Сериалы и Фильмы и другое...] [ 2.9 GB ] Три королевы / Серии: 1-8 из 8 [2016 HDTVRip] Sherif Скачать
1 | 0
Наши сериалы [ 5.01 GB ] Три королевы / Серии: 1-8 из 8 [2016 SATRip-AVC] aleksan55 Скачать
1 | 0

28-11-2019 20:33  

Отключить всю рекламу на сайте

    Дорогой пользователь! Огромная просьба, поблагодарите релизера, оцените раздачу и оставьте свои комментарий, если Вы скачали Три королевы через торрент бесплатно! Внесите свою лепту в развитие PiratBit!
    Комментировать посты могут только пользователи прошедшие не сложную регистрацию
    Показать сообщения:    

    Три королевы через торрент
    Скачать бесплатно Три королевы
    Три королевы скачать торрент
    Три королевы смотреть онлайн
    Cкачать фильм Три королевы бесплатно
    Три королевы скачать торрент в хорошем качестве
    Три королевы смотреть онлайн бесплатно в хорошем качестве


    Вы не можете начинать темы
    Вы не можете отвечать на сообщения
    Вы не можете редактировать свои сообщения
    Вы не можете удалять свои сообщения
    Вы не можете голосовать в опросах
    Вы не можете прикреплять файлы к сообщениям
    Вы можете скачивать файлы