Ссылка на приватное зеркало нашего сайта всего за 1$. Внимание количество ограничено!!!

2 сезон

iTunes

1 сезон

1

2 сезон

2 сезон

iTunes

1 сезон

RePack

30

Ultimate

ВАЖНО

ИГРА 18+

pack

RePack

MK11
pack

Забери бонус

RePack

jed

!!Акция!!

Alien_Rage

RePack

fifa19

RePack

Assassins Creed: Odyssey

RePack

NEED FOR SPEED™ PAYBACK

4 сезон

9 сезон

Бесстыжие 9 сезон

Все сериалы

все сериалы на PB.wtf

RePack

FAR CRY 5
  

Табу / Taboo / Сезон 1 / Серии 1-8 из 8 (Андерс Энгстрем / Anders Engström, Кристоффер Нюхольм / Kristoffer Nyholm) [2017 , Великобритания, США, драма, WEB-DLRip-AVC] MVO [BaibaKo] pb.wtf

Табу через торрент pb.wtf

Раздают: 1 [ 0 KB/s ]
Размер: 8.71 GB | Добавлен: 3 года 9 мес. назад | Торрент скачан:21 раз
Скачать  

11-01-2017 01:13 Табу Скачать торрент  

Табу / Taboo


  • Год выпуска: 2017
  • Страна: Великобритания, США
  • Жанр: драма
  • Продолжительность: 00:54:31 (Серия)
  • Перевод: Профессиональный многоголосый [BaibaKo]
  • Режиссер: Андерс Энгстрем / Anders Engström, Кристоффер Нюхольм / Kristoffer Nyholm
  • В ролях:

    Том Харди (James Keziah Delaney), Лео Билл (Wilton), Уна Чаплин (Zilpha Geary), Ричард Диксон (Pettifer), Дэвид Хейман (Brace), Майкл Келли (Dumbarton), Дэнни Лигаири (Martinez), Джонатан Прайс (Sir Stuart Strange), Рой Торн (Blacksmith), Скрубиус Пип (French Bill), Джейсон Уоткинс (Soloman Coop), Джефферсон Холл (Thorne Geary)


  • Действия захватывающего сериала разворачиваются в мрачной столице Великобритании, куда в 1814 году возвращается Джеймс Дилейни, считающийся давно мёртвым по причине десятилетнего отсутствия. После долгих лет, проведённых в Африке, Джеймсу удаётся вернуться домой, где он собирается унаследовать то, что осталось от целой судоходной империи, принадлежавшей его покойному отцу, а также начать новую жизнь в цивилизованном обществе. Его возвращение становится резонансным событием в высшем британском обществе, к тому же находятся те, которых это совсем не радует, ведь внезапное появление пропавшего отпрыска одного из влиятельнейших людей Лондона грозит разрушить их грандиозные далеко идущие вперёд планы.
    Да и сам Джеймс приехал в Лондон не с пустыми руками: он привозит с собой четырнадцать украденных алмазов, надеясь, что они станут ему хорошим подспорьем в его нелёгком деле. Желая отомстить за смерть своего отца, наш герой начинает собственное расследование. Стараясь найти как можно больше информации, чтобы раскрыть тёмную тайну его семьи, Джеймс сам того не подозревая становится на пути у людей, чьи интересы выходят далеко за рамки английского государства.
  • Рейтинг:



  • Качество: WEB-DLRip-AVC
  • Формат: :MPEG-4
  • Видео кодек: AVC
  • Аудио кодек: AC3
  • Видео: 1024x576 (16:9), 2000 kbps, 25 fps, 0,136 bpp
  • Аудио №1: русский / 5.1 / 48 kHz / 384 kbps / 16 bit |[BaibaKo]|
  • Аудио №2: английский / 5.1 / 48 kHz / 384 kbps / 16 bit
  • Релиз от: GEKADOL

    Внимание! Раздача ведётся путём добавления новых серий; при каждом добавлении создаётся новый торрент. Чтобы начать докачку новой серии, пользователям необходимо сделать следующее:
    (1) остановить скачивание,
    (2) удалить старый торрент у себя из клиента (старые серии удалять не надо),
    (3) скачать новый торрент и запустить его у себя в клиенте вместо старого, при этом указать клиенту путь в старую папку куда и должно происходить скачивание новых серий.
    Ваш клиент при этом должен произвести хеширование (проверку) старой папки (если не производит сам - помогите ему сделать это), и будет докачивать только те серии которых у вас ещё нет. Старые серии при этом не удаляются, а продолжают раздаваться!
    Eсли вы уже удалили старые серии, то предотвратить повторную закачку старых серий можно, отжав галочку в соответствующих местах при запуске нового торрента. По возможности, желательно не удалять старые серии как можно дольше чтобы релизёр не столько продолжал раздавать старые серии, а смог сконцентрироваться на новых.

    General
    Complete name : H:\Табу (Taboo)\Taboo.s01e01.WEB-DLRip-AVC.Rus.Eng.BaibaKo.tv.mp4
    Format : MPEG-4
    Format profile : Base Media
    Codec ID : isom (isom/iso2/avc1/mp41)
    File size : 1.06 GiB
    Duration : 54 min
    Overall bit rate : 2 773 kb/s
    Writing application : XviD4PSP 7.0.343 DAILY
    HDVideo : Yes
    encoding_info : MATROSKA / WEBM > MP4 Произвольный / H264 > X264 CBR 2000kbps HQ / AC3 > AC3 CBR 384kbps / AC3 > AC3 CBR 384kbps

    Video
    ID : 1
    Format : AVC
    Format/Info : Advanced Video Codec
    Format profile : High@L4.1
    Format settings, CABAC : Yes
    Format settings, ReFrames : 4 frames
    Codec ID : avc1
    Codec ID/Info : Advanced Video Coding
    Duration : 54 min
    Bit rate : 2 000 kb/s
    Width : 1 024 pixels
    Height : 576 pixels
    Display aspect ratio : 16:9
    Frame rate mode : Constant
    Frame rate : 25.000 FPS
    Color space : YUV
    Chroma subsampling : 4:2:0
    Bit depth : 8 bits
    Scan type : Progressive
    Bits/(Pixel*Frame) : 0.136
    Stream size : 780 MiB (72%)
    Writing library : x264 core 148 r2744M b97ae06
    Encoding settings : cabac=1 / ref=3 / deblock=1:-1:-1 / analyse=0x3:0x133 / me=hex / subme=7 / psy=1 / psy_rd=1.00:0.20 / mixed_ref=1 / me_range=16 / chroma_me=1 / trellis=1 / 8x8dct=1 / cqm=0 / deadzone=21,11 / fast_pskip=1 / chroma_qp_offset=-3 / threads=5 / lookahead_threads=1 / sliced_threads=0 / nr=0 / decimate=1 / interlaced=0 / bluray_compat=0 / constrained_intra=0 / bframes=3 / b_pyramid=2 / b_adapt=2 / b_bias=0 / direct=3 / weightb=1 / open_gop=0 / weightp=2 / keyint=250 / keyint_min=25 / scenecut=40 / intra_refresh=0 / rc_lookahead=40 / rc=cbr / mbtree=1 / bitrate=2000 / ratetol=1.0 / qcomp=0.60 / qpmin=0 / qpmax=69 / qpstep=4 / vbv_maxrate=2000 / vbv_bufsize=30000 / nal_hrd=none / filler=0 / ip_ratio=1.40 / aq=1:1.00

    Audio #1
    ID : 2
    Format : AC-3
    Format/Info : Audio Coding 3
    Mode extension : CM (complete main)
    Format settings, Endianness : Big
    Codec ID : ac-3
    Duration : 54 min
    Bit rate mode : Constant
    Bit rate : 384 kb/s
    Channel(s) : 6 channels
    Channel positions : Front: L C R, Side: L R, LFE
    Sampling rate : 48.0 kHz
    Frame rate : 31.250 FPS (1536 spf)
    Bit depth : 16 bits
    Compression mode : Lossy
    Stream size : 150 MiB (14%)
    Language : Russian
    Default : Yes
    Alternate group : 1

    Audio #2
    ID : 3
    Format : AC-3
    Format/Info : Audio Coding 3
    Mode extension : CM (complete main)
    Format settings, Endianness : Big
    Codec ID : ac-3
    Duration : 54 min
    Bit rate mode : Constant
    Bit rate : 384 kb/s
    Channel(s) : 6 channels
    Channel positions : Front: L C R, Side: L R, LFE
    Sampling rate : 48.0 kHz
    Frame rate : 31.250 FPS (1536 spf)
    Bit depth : 16 bits
    Compression mode : Lossy
    Stream size : 150 MiB (14%)
    Language : English
    Default : No
    Alternate group : 1



    Скриншоты:
    скриншот   скриншот   скриншот   скриншот   скриншот   скриншот   скриншот  
    скриншот  

    Раздача ведётся путём добавления новых серий. Добавлена 8 серия (27.02.2017).Просьба перекачать торрент файл.

    pb.wtf



  • Скачать Табу через торрент http://i91.fastpic.ru/big/2017/0111/c4/e84e9dcbb7788de9d13fac5f738f1fc4.jpg Скачать фильм Табу через торрент бесплантно в хорошем качестве qw.png Действия захватывающего сериала разворачиваются в мрачной столице Великобритании, куда в 1814 году возвращается Джеймс Дилейни, ... 8.9 10 18
    Info! Золотая раздача, скачанное не засчитывается.
    Торрент: Зарегистрирован [2017-02-27 01:03] · скачан: 21 раз
    Статус: √ проверено
    Размер: 8.71 GB
    Как cкачать? Как скачать Табу через торрент | qTorrent

    % Раздел Тема Автор DL S | L
    Зарубежные сериалы [ 7.6 GB ] Табу / Taboo / Сезон: 1 / Серии: 1-8 из 8 [2017 BDRip] [MVO] killermax2013 Скачать
    1 | 0
    Зарубежные сериалы [ 5.14 GB ] Табу / Taboo / Сезон: 1 / Серии: 1-8 из 8 [2017 WEB-DLRip] [MVO] killermax2013 Скачать
    1 | 0
    Зарубежные сериалы [ 7.46 GB ] Табу / Taboo / Сезон 1 / Серии 1-8 из 8 [2017 WEB-DLRip-AVC] многоголосый [NewStudio] от ExKinoRay Enigma2010 Скачать
    1 | 0
    Зарубежные сериалы [ 19.88 GB ] Табу / Taboo / Сезон: 1 / Серии: 8 из 8 [2017 WEB-DL 1080p] MVO Ворон Скачать
    1 | 0
    Фильмы с украинским озвучиванием [ 4.4 GB ] Табу / Taboo / Сезон: 1 / Серии: 1-8 из 8 [2017 WEB-DLRip] [Ukr MVO] killermax2013 Скачать
    1 | 0
    Зарубежные сериалы [ 10.31 GB ] Табу / Taboo / Сезон: 1 / Серии: 1-8 из 8 [2017 WEBRip 720p / HDTVRip 720p] [DVO] killermax2013 Скачать
    2 | 0
    Зарубежные сериалы [ 30.9 GB ] Табу / Taboo / Сезон: 1 / Серии: 1-8 из 8 [2017 HDTVRip 1080p] [MVO] killermax2013 Скачать
    1 | 0

    28-11-2019 20:33  

    Отключить всю рекламу на сайте

      Дорогой пользователь! Огромная просьба, поблагодарите релизера, оцените раздачу и оставьте свои комментарий, если Вы скачали Табу через торрент бесплатно! Внесите свою лепту в развитие PiratBit!
      Комментировать посты могут только пользователи прошедшие не сложную регистрацию
      Показать сообщения:    

      Табу через торрент
      Скачать бесплатно Табу
      Табу скачать торрент
      Табу смотреть онлайн
      Cкачать фильм Табу бесплатно
      Табу скачать торрент в хорошем качестве
      Табу смотреть онлайн бесплатно в хорошем качестве


      Вы не можете начинать темы
      Вы не можете отвечать на сообщения
      Вы не можете редактировать свои сообщения
      Вы не можете удалять свои сообщения
      Вы не можете голосовать в опросах
      Вы не можете прикреплять файлы к сообщениям
      Вы можете скачивать файлы