MEGA NEWS Получи личный уникальный адрес сайта и защити себя от блокировок. Внимание количество ограничено!!!

iTunes

1+1

iTunes

мы

iTunes

1

iTunes

Чернобыль

iTunes

Ральф против интернета

Лицензия

ПШазам

Лицензия

Игра престолов

Лицензия

30
pack

ВАЖНО

!!Акция!!

Alien_RageХит недели

RePack

Resident Evil 21

ИГРА 18+

pack

RePack

Metro:Exodus

!!Акция!!

Alien_Rage

RePack

fifa19

RePack

Assassins Creed: Odyssey

RePack

NEED FOR SPEED™ PAYBACK

3 сезон

9 сезон

Бесстыжие 9 сезон

Все сериалы

все сериалы на PB.wtf

RePack

FAR CRY 5
Ребята, катастрофически не хватает 1900р. для оплаты серверов за АВГУСТ (всвязи с блокировками трафик упал в 3 раза), 1-2р., выручайте.
  

Пелле завоеватель / Pelle erobreren (Билле Аугуст) [1987 г., драма, HDRip] DVO pb.wtf

Пелле завоеватель через торрент pb.wtf

Размер: 2.18 GB | Добавлен: 2 года 9 мес. назад | Торрент скачан:4 раза
Скачать  

11-01-2017 13:22 Пелле завоеватель Скачать торрент  

Пелле завоеватель / Pelle erobreren
Год выпуска: 1987
Страна: Дания, Швеция
Жанр: драма
Продолжительность: 02:23:46
Перевод: Профессиональный (двухголосый)

Режиссер: Билле Аугуст

rating

В ролях: Пелле Хвенегаард, Макс фон Сюдов, Эрик Паске, Бьерн Гранат, Астрид Виллом, Аксель Стребюэ, Троелс Асмуссен, Кристина Тернквист, Карен Вегенер, Софи Гробёль, Ларс Симонсен, Бастер Ларсен, Джон Виттиг, Троэльс Мунк, Нис Банк-Миккельсен

Описание: 1877 год. Восьмилетний Пелле, сын пожилого батрака Лассе Карлсона, перебирается с отцом из Швеции в Данию на эмигрантском судне. Здесь он живет на крестьянской ферме, приобщаясь к сложностям окружающего мира — к светлому и мерзкому, доброму и ужасному, трогательному и ничтожному. Он проходит через привязанность и боль, разочарование и любовь, получает знания в местной школе для бедняков и первые уроки социальной борьбы в надежде однажды уйти и покорить чужой мир.

Доп. информация: Первые 9 минут перевод одноголосый

Качество: HDRip
Формат: AVI
Видео кодек: XviD
Аудио кодек: AC3
Видео: XviD, 1969 Кбит/с, 720x384, 25 кадр/с
Аудио: AC3, 2 ch, 192 Кбит/с, 48 kHz
Релиз от: Koenig
Общее
Полное имя : Pelle.the.Conqueror.1987.HDRip.avi
Формат : AVI
Формат/Информация : Audio Video Interleave
Профиль формата : OpenDML
Размер файла : 2,18 Гбайт
Продолжительность : 2 ч. 23 м.
Общий поток : 2173 Кбит/сек
Программа кодирования : VirtualDubMod 1.5.10.2 (build 2540/release)
Библиотека кодирования : VirtualDubMod build 2540/release

Видео
Идентификатор : 0
Формат : MPEG-4 Visual
Профиль формата : Advanced Simple@L5
Параметр BVOP формата : 1
Параметр QPel формата : Нет
Параметр GMC формата : Без точки перехода
Параметр матрицы формата : Выборочная
Идентификатор кодека : XVID
Идентификатор кодека/Подсказка : XviD
Продолжительность : 2 ч. 23 м.
Битрейт : 1969 Кбит/сек
Ширина : 720 пикселей
Высота : 384 пикселя
Соотношение сторон : 1,85:1
Частота кадров : 25,000 кадров/сек
Цветовое пространство : YUV
Субдискретизация насыщенности : 4:2:0
Битовая глубина : 8 бит
Тип развёртки : Прогрессивная
Метод сжатия : С потерями
Бит/(Пиксели*Кадры) : 0.285
Размер потока : 1,98 Гбайт (91%)
Библиотека кодирования : XviD 73

Аудио
Идентификатор : 1
Формат : AC-3
Формат/Информация : Audio Coding 3
Расширение режима : CM (complete main)
Параметр Endianness формата : Big
Идентификатор кодека : 2000
Продолжительность : 2 ч. 23 м.
Вид битрейта : Постоянный
Битрейт : 192 Кбит/сек
Каналы : 2 канала
Расположение каналов : Front: L R
Частота : 48,0 КГц
Частота кадров : 31,250 кадров/сек (1536 spf)
Битовая глубина : 16 бит
Метод сжатия : С потерями
Размер потока : 197 Мбайт (9%)
Выравнивание : Разделение по промежуткам
Продолжительность промежутка : 40 мс. (1,00 видеокадр)
Время предзагрузки промежутка : 500 мс.

pb.wtf



Скачать Пелле завоеватель через торрент http://pic1.kartinco.top/images/11/enufp.jpg Скачать фильм Пелле завоеватель через торрент бесплантно в хорошем качестве Описание: 1877 год. Восьмилетний Пелле, сын пожилого батрака Лассе Карлсона, перебирается с отцом из Швеции в Данию на эмигрантском судне. ... 1 10 1
Торрент: Зарегистрирован [2017-01-11 13:22] · скачан: 4 раз
Статус: √ проверено
Размер: 2.18 GB
Как cкачать? Как скачать Пелле завоеватель через торрент | qTorrent


>> Регистрируемся здесь <<






Отзывы и комментарии о схеме читаем и пишем здесь: ---> Отзывы и комментарии о схеме

Новые благодарочки в телеграм довольных пользователей:
скриншот   скриншот   скриншот   скриншот   скриншот
    Дорогой пользователь! Огромная просьба, поблагодарите релизера, оцените раздачу и оставьте свои комментарий, если Вы скачали Пелле завоеватель через торрент бесплатно! Внесите свою лепту в развитие PiratBit!
    Комментировать посты могут только пользователи прошедшие не сложную регистрацию
    Показать сообщения:    

    Пелле завоеватель через торрент
    Скачать бесплатно Пелле завоеватель
    Пелле завоеватель скачать торрент
    Пелле завоеватель смотреть онлайн
    Cкачать фильм Пелле завоеватель бесплатно
    Пелле завоеватель скачать торрент в хорошем качестве
    Пелле завоеватель смотреть онлайн бесплатно в хорошем качестве


    Вы не можете начинать темы
    Вы не можете отвечать на сообщения
    Вы не можете редактировать свои сообщения
    Вы не можете удалять свои сообщения
    Вы не можете голосовать в опросах
    Вы не можете прикреплять файлы к сообщениям
    Вы можете скачивать файлы