новый адрес пиратбит piratbit
Мега распродажа FORZA HORIZON 4 ULTIMATE+ВСЕ DLC+ОНЛАЙН всего за 499р. 349 руб. (супер цена). Внимание количество ограничено!!!

iTunes

1+1

iTunes

мы

iTunes

1

iTunes

Чернобыль

iTunes

Ральф против интернета

Лицензия

ПШазам

Лицензия

Игра престолов

Лицензия

30
pack

ВАЖНО

!!Акция!!

Alien_RageХит недели

RePack

Resident Evil 21

ИГРА 18+

pack

RePack

Metro:Exodus

!!Акция!!

Alien_Rage

RePack

fifa19

RePack

Assassins Creed: Odyssey

RePack

NEED FOR SPEED™ PAYBACK

3 сезон

9 сезон

Бесстыжие 9 сезон

Все сериалы

все сериалы на PB.wtf

RePack

FAR CRY 5
Ребята, катастрофически не хватает 1900р. для оплаты серверов за Октябрь (всвязи с блокировками трафик упал в 3 раза), 1-2р., выручайте.
  

Песня табунщика (Андрей Фролов) [1956, СССР, комедия, VHSRip от AVP Studio] pb.wtf

Песня табунщика через торрент pb.wtf

Размер: 748 MB | Добавлен: 2 года 10 мес. назад | Торрент скачан:10 раз
Скачать  

12-01-2017 10:47 Песня табунщика Скачать торрент  

Песня табунщика
Страна: СССР
Производство: Мосфильм

Жанр: комедия
Год выпуска: 1956
Продолжительность: 01:23:53

Перевод: Не требуется
Cубтитры: нет
Оригинальная аудиодорожка: русский

Режиссер: Андрей Фролов

В ролях:
Владимир Манкетов, Дилорам Джурабаева, Буянто Аюшин, Муратбек Рыскулов, Чойжи-Нима Генинов, Николай Таров, Александр Дамбиев, Виталий Доронин, Афанасий Белов, Александра Попова...
Об актёрах подробней

Описание:
Бурятско-монгольский колхоз посылает молодого талантливого певца Тумэна Жаргалова учиться в Москву. В родном селении юноша оставляет свою возлюбленную, красавицу Сэсэг. Девушка обещает ждать его возвращения. Приехав в Москву, Тумэн по легкомыслию дает домой телеграмму о том, что он стал студентом консерватории. Но, незнающий нотной грамоты, он, хоть и обладает дивным и сильным голосом, проваливает экзамен. Ночь, проведенная у консерватории, оканчивается для юноши посещением отделения милиции. Его сильный голос приводит в восторг майора Бугрова, энтузиаста художественной самодеятельности. Тумэн становится солистом непрофессионального хора и старшиной милиции, а параллельно работе учится нотной грамоте и мечтает о консерватории...

Источник: VHS
Качество видео: VHSRip
Формат видео: AVI

Видео: 640x480 (4:3), 25 fps, XviD ~ 1105 kbps avg, 0.144 bit/pixel
Аудио: 48 kHz, MP3 2.0, 128 kbps

Раздача от:
Общее
Полное имя : Pesnya.tabunchika.1956.VHSRip_[New-team]_by_AVP_Studio.avi
Формат : AVI
Формат/Информация : Audio Video Interleave
Размер файла : 748 Мбайт
Продолжительность : 1 ч. 23 м.
Общий поток : 1246 Кбит/сек

Видео
Идентификатор : 0
Формат : MPEG-4 Visual
Профиль формата : Advanced Simple@L5
Параметр BVOP формата : 1
Параметр QPel формата : Нет
Параметр GMC формата : Без точки перехода
Параметр матрицы формата : Выборочная
Идентификатор кодека : XVID
Идентификатор кодека/Подсказка : XviD
Продолжительность : 1 ч. 23 м.
Битрейт : 1105 Кбит/сек
Ширина : 640 пикселей
Высота : 480 пикселей
Соотношение сторон : 4:3
Частота кадров : 25,000 кадров/сек
Цветовое пространство : YUV
Субдискретизация насыщенности : 4:2:0
Битовая глубина : 8 бит
Тип развёртки : Прогрессивная
Метод сжатия : С потерями
Бит/(Пиксели*Кадры) : 0.144
Размер потока : 663 Мбайт (89%)
Библиотека кодирования : XviD 73

Аудио
Идентификатор : 1
Формат : MPEG Audio
Версия формата : Version 1
Профиль формата : Layer 3
Режим : Joint stereo
Идентификатор кодека : 55
Идентификатор кодека/Подсказка : MP3
Продолжительность : 50 м. 19 с.
Продолжительность оригинала : 1 ч. 23 м.
Вид битрейта : Постоянный
Битрейт : 128 Кбит/сек
Каналы : 2 канала
Частота : 48,0 КГц
Метод сжатия : С потерями
Размер потока : 76,8 Мбайт (10%)
Выравнивание : Соединение по промежуткам
Продолжительность промежутка : 24 мс. (0,60 видеокадр)
pb.wtf



Скачать Песня табунщика через торрент http://s010.radikal.ru/i312/1701/df/0df2cdd6ec18.png Скачать фильм Песня табунщика через торрент бесплантно в хорошем качестве Описание:Бурятско-монгольский колхоз посылает молодого талантливого певца Тумэна Жаргалова учиться в Москву. В родном селении юноша ... 10 10 2
Info! Золотая раздача, скачанное не засчитывается.
Торрент: Зарегистрирован [2017-01-12 10:47] · скачан: 10 раз
Статус: √ проверено
Размер: 748 MB
Как cкачать? Как скачать Песня табунщика через торрент | qTorrent

% Раздел Тема Автор DL S | L
Кино СССР [ 1.09 GB ] Песня табунщика [1956 СССР VHSRip-AVC от AVP Studio] AVP Studio Скачать
1 | 0


>> Регистрируемся здесь <<






Отзывы и комментарии о схеме читаем и пишем здесь: ---> Отзывы и комментарии о схеме

Новые благодарочки в телеграм довольных пользователей:
скриншот   скриншот   скриншот   скриншот   скриншот
    Дорогой пользователь! Огромная просьба, поблагодарите релизера, оцените раздачу и оставьте свои комментарий, если Вы скачали Песня табунщика через торрент бесплатно! Внесите свою лепту в развитие PiratBit!
    Комментировать посты могут только пользователи прошедшие не сложную регистрацию
    Показать сообщения:    

    Песня табунщика через торрент
    Скачать бесплатно Песня табунщика
    Песня табунщика скачать торрент
    Песня табунщика смотреть онлайн
    Cкачать фильм Песня табунщика бесплатно
    Песня табунщика скачать торрент в хорошем качестве
    Песня табунщика смотреть онлайн бесплатно в хорошем качестве


    Вы не можете начинать темы
    Вы не можете отвечать на сообщения
    Вы не можете редактировать свои сообщения
    Вы не можете удалять свои сообщения
    Вы не можете голосовать в опросах
    Вы не можете прикреплять файлы к сообщениям
    Вы можете скачивать файлы