1 сезон

3 сезон

iTunes

1

iTunes

MVO

iTunes

13

1 сезон

RePack

30

Deluxe

pack

Лицензия

ВАЖНО

ИГРА 18+

pack

RePack

MK11

RePack

jed

RePack

fifa19

RePack

RDR2

RePack

NEED FOR SPEED™ PAYBACK

4 сезон

9 сезон

Бесстыжие 9 сезон

Все сериалы

все сериалы на PB.wtf

RePack

FAR CRY 5

Anonymous, доброй ночи, мы катастрофически не успеваем собрать деньги на оплату серверов, помогите нам пожалуйста 5,10,15р., для нас важна любая помощь . В качестве благодарности мы отключим Вам всю рекламу на сайте (укажите свой ник в строку Ваше имя)!

×
  
Magnet ссылка

Девушка в поезде / The Girl on the Train (Тейт Тейлор) [2016, триллер, драма, детектив, BDRip-AVC от R.G. Resident] Дубляж - [Лицензия] pb.wtf

Девушка в поезде через торрент pb.wtf

Размер: 2.8 GB | Добавлен: 4 года 5 мес. назад | Торрент скачан:1061 раз
Скачать  

13-01-2017 07:33 Девушка в поезде Скачать торрент  

Девушка в поезде / The Girl on the Train

Год выпуска: 2016
Страна: США
Жанр: триллер, драма, детектив

Продолжительность: 01:52:05
Перевод: Дубляж - [Лицензия]
Субтитры: русские (Forced, Full), английские (Full, SDH)
Режиссер: Тейт Тейлор
В ролях:

Эмили Блант (Rachel), Хейли Беннетт (Megan), Ребекка Фергюсон (Anna), Джастин Теру (Tom), Люк Эванс (Scott), Эдгар Рамирес (Dr. Kamal Abdic), Лора Припон (Cathy), Эллисон Дженни (Detective Riley), Даррен Голдштейн (Man in the Suit), Лиза Кудроу (Martha), Клета Элейн Эллингтон (Oyster Bar Woman), Лана Янг (Doctor)
Описание:
Каждый день поезд проносит Рэйчел мимо очаровательного коттеджа, где живет идеальная на первый взгляд пара. Но однажды идиллия разрушится - прекрасная незнакомка бесследно исчезнет. Рэйчел окажется втянута в весьма запутанную историю, ведь только она видела из окна то, что было скрыто ото всех.
Рейтинг:

MPAA: R - Лицам до 17 лет обязательно присутствие взрослого
Качество: BDRip-AVC
Формат: MKV
Видео: AVC, 1024x552 (1.85:1), 2682 kbps, 23,976 fps, 0,198 bpp
Аудио №1: русский / AC3 / 5.1 / 48 kHz / 448 kbps / |Дубляж, Лицензия|
Аудио №2: английский / AC3 / 5.1 / 48 kHz / 448 kbps /
Навигация по главам: есть

Общее
Уникальный идентификатор : 227946799980366291247069947240551449468 (0xAB7CF4EF988DDD95B260390DA972837C)
Полное имя : E:\The.Girl.on.the.Train.2016.BDRip.AVC.by.R.G.Resident.mkv
Формат : Matroska
Версия формата : Version 4 / Version 2
Размер файла : 2,80 Гбайт
Продолжительность : 1 ч. 52 м.
Общий поток : 3579 Кбит/сек
Название фильма : The Girl on the Train (2016) BDRip-AVC от R.G. Resident
Дата кодирования : UTC 2017-01-27 08:39:36
Программа кодирования : mkvmerge v9.8.0 ('Kuglblids') 64bit
Библиотека кодирования : libebml v1.3.4 + libmatroska v1.4.5
Обложка : Yes
Attachments : cover.jpg

Видео
Идентификатор : 1
Формат : AVC
Формат/Информация : Advanced Video Codec
Профиль формата : High@L4.1
Параметр CABAC формата : Да
Параметр ReFrames формата : 9 кадров
Идентификатор кодека : V_MPEG4/ISO/AVC
Продолжительность : 1 ч. 52 м.
Битрейт : 2682 Кбит/сек
Ширина : 1024 пикселя
Высота : 552 пикселя
Соотношение сторон : 1,85:1
Режим частоты кадров : Постоянный
Частота кадров : 23,976 кадра/сек
Цветовое пространство : YUV
Субдискретизация насыщенности : 4:2:0
Битовая глубина : 8 бит
Тип развёртки : Прогрессивная
Бит/(Пиксели*Кадры) : 0.198
Размер потока : 2,10 Гбайт (75%)
Заголовок : -Lexx-
Библиотека кодирования : x264 core 146 r2538 121396c
Настройки программы : cabac=1 / ref=9 / deblock=1:-2:-2 / analyse=0x3:0x113 / me=umh / subme=11 / psy=1 / psy_rd=1.00:0.10 / mixed_ref=1 / me_range=48 / chroma_me=1 / trellis=2 / 8x8dct=1 / cqm=0 / deadzone=21,11 / fast_pskip=0 / chroma_qp_offset=-3 / threads=6 / lookahead_threads=2 / sliced_threads=0 / nr=0 / decimate=0 / interlaced=0 / bluray_compat=0 / constrained_intra=0 / bframes=10 / b_pyramid=2 / b_adapt=2 / b_bias=0 / direct=3 / weightb=1 / open_gop=0 / weightp=2 / keyint=240 / keyint_min=23 / scenecut=40 / intra_refresh=0 / rc=2pass / mbtree=0 / bitrate=2682 / ratetol=1.0 / qcomp=0.60 / qpmin=0 / qpmax=69 / qpstep=4 / cplxblur=20.0 / qblur=0.5 / ip_ratio=1.40 / pb_ratio=1.30 / aq=1:1.00
Язык : English
Default : Да
Forced : Нет

Аудио #1
Идентификатор : 2
Формат : AC-3
Формат/Информация : Audio Coding 3
Расширение режима : CM (complete main)
Параметр Endianness формата : Big
Идентификатор кодека : A_AC3
Продолжительность : 1 ч. 52 м.
Вид битрейта : Постоянный
Битрейт : 448 Кбит/сек
Каналы : 6 каналов
Расположение каналов : Front: L C R, Side: L R, LFE
Частота : 48,0 КГц
Частота кадров : 31,250 кадров/сек (1536 spf)
Битовая глубина : 16 бит
Метод сжатия : С потерями
Размер потока : 359 Мбайт (13%)
Заголовок : Дубляж, Лицензия
Язык : Russian
Default : Да
Forced : Нет

Аудио #2
Идентификатор : 3
Формат : AC-3
Формат/Информация : Audio Coding 3
Расширение режима : CM (complete main)
Параметр Endianness формата : Big
Идентификатор кодека : A_AC3
Продолжительность : 1 ч. 52 м.
Вид битрейта : Постоянный
Битрейт : 448 Кбит/сек
Каналы : 6 каналов
Расположение каналов : Front: L C R, Side: L R, LFE
Частота : 48,0 КГц
Частота кадров : 31,250 кадров/сек (1536 spf)
Битовая глубина : 16 бит
Метод сжатия : С потерями
Размер потока : 359 Мбайт (13%)
Заголовок : Оригинал
Язык : English
Default : Нет
Forced : Нет

Текст #1
Идентификатор : 4
Формат : UTF-8
Идентификатор кодека : S_TEXT/UTF8
Идентификатор кодека/Информация : UTF-8 Plain Text
Продолжительность : 1 ч. 51 м.
Битрейт : 1 бит/сек
Count of elements : 34
Размер потока : 1,26 Кбайт (0%)
Заголовок : Forced
Язык : Russian
Default : Да
Forced : Нет

Текст #2
Идентификатор : 5
Формат : UTF-8
Идентификатор кодека : S_TEXT/UTF8
Идентификатор кодека/Информация : UTF-8 Plain Text
Продолжительность : 1 ч. 51 м.
Битрейт : 73 бит/сек
Count of elements : 1155
Размер потока : 59,4 Кбайт (0%)
Заголовок : Full
Язык : Russian
Default : Нет
Forced : Нет

Текст #3
Идентификатор : 6
Формат : UTF-8
Идентификатор кодека : S_TEXT/UTF8
Идентификатор кодека/Информация : UTF-8 Plain Text
Продолжительность : 1 ч. 44 м.
Битрейт : 44 бит/сек
Count of elements : 1184
Размер потока : 34,0 Кбайт (0%)
Заголовок : Full
Язык : English
Default : Нет
Forced : Нет

Текст #4
Идентификатор : 7
Формат : UTF-8
Идентификатор кодека : S_TEXT/UTF8
Идентификатор кодека/Информация : UTF-8 Plain Text
Продолжительность : 1 ч. 45 м.
Битрейт : 48 бит/сек
Count of elements : 1320
Размер потока : 37,3 Кбайт (0%)
Заголовок : SDH
Язык : English
Default : Нет
Forced : Нет

Меню
00:00:00.000 : en:00:00:00.000
00:04:55.128 : en:00:04:55.128
00:11:38.531 : en:00:11:38.531
00:17:30.007 : en:00:17:30.007
00:23:07.469 : en:00:23:07.469
00:29:35.816 : en:00:29:35.816
00:35:21.953 : en:00:35:21.953
00:42:35.678 : en:00:42:35.678
00:49:51.822 : en:00:49:51.822
00:55:14.186 : en:00:55:14.186
00:59:26.062 : en:00:59:26.062
01:05:48.027 : en:01:05:48.027
01:10:52.957 : en:01:10:52.957
01:13:14.724 : en:01:13:14.724
01:22:34.032 : en:01:22:34.032
01:31:42.956 : en:01:31:42.956
01:42:29.101 : en:01:42:29.101
01:51:31.018 : en:01:51:31.018
02:01:29.324 : en:02:01:29.324
02:07:08.621 : en:02:07:08.621
pb.wtf
!-Lexx- писал(а):

Торрент перезалит 27.01.2017 в 11:56 МСК, замена звука на Дубляж (Лицензия BD EUR), добавлены русские субтитры (Full).



Скачать Девушка в поезде через торрент http://i77.fastpic.ru/big/2016/0417/a7/808a646271c761f7c7d87df3d366b3a7.png Скачать фильм Девушка в поезде через торрент бесплантно в хорошем качестве Описание: Каждый день поезд проносит Рэйчел мимо очаровательного коттеджа, где живет идеальная на первый взгляд пара. Но однажды идиллия ... 8.6 10 30
Info! Золотая раздача, скачанное не засчитывается.
Торрент: Зарегистрирован [2017-01-27 08:56] · скачан: 1 061 раз
Статус: √ проверено
Размер: 2.8 GB
Как cкачать? Как скачать Девушка в поезде через торрент | UTorrent

% Раздел Тема Автор DL S | L
Фильмы [HD 720p, 1080p] (Хороший звук DUB, MVO) [ 11.46 GB ] Девушка в поезде / The Girl on the Train [2016 BDRip 1080p] DUB + 2хAVO - KORSAR kisa1980 Скачать
1 | 0
Фильмы [HD 720p, 1080p] (Хороший звук DUB, MVO) [ 6.52 GB ] Девушка в поезде / The Girl on the Train [2016 BDRip 720p] DUB + 2хAVO - KORSAR kisa1980 Скачать
1 | 0
Ultra HD (UHD: 2K, 4K, 8K) — видео сверхвысокой чёткости [ 53.05 GB ] Девушка в поезде / The Girl on the Train [2016 UHD BDRemux 2160p] 2xAVO [Гаврилов Немахов] +DUB [] bober100 Скачать
1 | 0
Фильмы с авторской озвучкой [ 1.46 GB ] Девушка в поезде / The Girl on the Train [2016 BDRip] [AVO] killermax2013 Скачать
1 | 0
Фильмы (Blu-ray, BD-Remux, HDDVD) [ 29.24 GB ] Девушка в поезде / The Girl on the Train [2016 BD Remux 1080p] DUB [] bober100 Скачать
1 | 0
Фильмы 2016 [DVDrip, WEB-DLRip, HDrip] (DUB, MVO) [ 2.17 GB ] Девушка в поезде / The Girl on the Train [2016 HDRip "BD EUR"] coc900 Скачать
1 | 0
Фильмы (WEB-DL 720p, 1080p) [ 4.38 GB ] Девушка в поезде / The Girl on the Train [2016 WEB-DL 1080p] - Ворон Скачать
1 | 0


Последний раз редактировалось: -Lexx- (2017-01-27 08:56), всего редактировалось 1 раз

28-11-2019 20:33  

Отключить всю рекламу на сайте


16-01-2017 16:52 Девушка в поезде Скачать торрент  

отличный фильмpb.wtf



27-01-2017 09:06 Девушка в поезде Скачать торрент  

На раз пойдетpb.wtf



11-02-2017 04:52 Девушка в поезде Скачать торрент  

Нее ребят, более унылого го..вна я давно не смотрел. Не знаю как там книга, не читал и скорее всего не буду. Фильм скучный, тупой, и очень дипрессивный....весь фильм эти унылые рожи, что то ноют, бухают и снова ноют и все плохо и зае...надоедают к середине фильма настолько, что уже ждешь концовки. А она как правило якобы должны быть закручена, но нет, все бонально. К тому же героям ну несопереживаешь ну никак...алкоголичка все равно останется алкоголичной с унылым еба...лицом...pb.wtf



11-02-2017 10:28 Девушка в поезде Скачать торрент  

Жене понравился больше, чем мне. Такие фильмы можно смотреть один раз. Такое кино не будешь пересматривать.pb.wtf



    Дорогой пользователь! Огромная просьба, поблагодарите релизера, оцените раздачу и оставьте свои комментарий, если Вы скачали Девушка в поезде через торрент бесплатно! Внесите свою лепту в развитие PiratBit!
    Комментировать посты могут только пользователи прошедшие не сложную регистрацию
    Показать сообщения:    

    Девушка в поезде через торрент
    Скачать бесплатно Девушка в поезде
    Девушка в поезде скачать торрент
    Девушка в поезде смотреть онлайн
    Cкачать фильм Девушка в поезде бесплатно
    Девушка в поезде скачать торрент в хорошем качестве
    Девушка в поезде смотреть онлайн бесплатно в хорошем качестве


    Вы не можете начинать темы
    Вы не можете отвечать на сообщения
    Вы не можете редактировать свои сообщения
    Вы не можете удалять свои сообщения
    Вы не можете голосовать в опросах
    Вы не можете прикреплять файлы к сообщениям
    Вы можете скачивать файлы