Ссылка на приватное зеркало нашего сайта всего за 1$. Внимание количество ограничено!!!

2 сезон

iTunes

1 сезон

1

iTunes

iTunes

iTunes

1 сезон

RePack

30

ИГРА 18+

pack

ВАЖНО

!!Акция!!

Alien_RageХит недели

RePack

MK11
pack

Забери бонус

RePack

jed

!!Акция!!

Alien_Rage

RePack

fifa19

RePack

Assassins Creed: Odyssey

RePack

NEED FOR SPEED™ PAYBACK

4 сезон

9 сезон

Бесстыжие 9 сезон

Все сериалы

все сериалы на PB.wtf

RePack

FAR CRY 5
  

Из Сибири с любовью / 1-4 серии из 4 (Мария Маханько) [2016 г., мелодрама, WEB-DLRip 720p] pb.wtf

Из Сибири с любовью через торрент pb.wtf

Размер: 3.39 GB | Добавлен: 3 года 9 мес. назад | Торрент скачан:87 раз
Скачать  

13-01-2017 09:40 Из Сибири с любовью Скачать торрент  

Из Сибири с любовью
Год выпуска: 2016
Страна: Россия
Жанр: мелодрама
Продолжительность: 4 x ~ 00:43:00
Перевод: Не требуется [Русский]
Субтитры: отсутствуют

Режиссер: Мария Маханько



В ролях:

Владимир Гориславец, Антонина Дивина, Валерий Баринов, Наталья Качалова, Дмитрий Блажко, Ирина Чипиженко, Елена Аросьева, Денис Яковлев, Мария Рассказова, Максим Максимов (VII), Евгения Бордзиловская, Светлана Йозефий, Александр Миронов (III), Александр Пугачёв (II), Марина Антонова, Сергей Бадичкин, Григорий Шевчук, Надежда Белова

Описание:

У своенравной Анастасии две мечты: выйти замуж за Никиту Басова и получить свободу от своего властного деда Вениамина. Однако мажор Никита девушку отвергает. Расстроенную Настю буквально из-под колёс автомобиля спасает "гость столицы" – участковый из сибирского посёлка Степан. Дед лишает внучку финансовой поддержки. Он смягчит свою позицию только в том случае, если она продержится в браке со Стёпой полгода и не попросит помощи. Степан забирает свою новоиспечённую жену в Сибирь. Непривычный деревенский быт, шумная Стёпина родня, козни его бывшей девушки, внезапный визит Никиты становятся для Насти настоящим испытанием и заставляют её по-новому взглянуть на жизнь...

Качество: WEB-DLRip 720p
Формат: MKV
Видео кодек: H.264
Аудио кодек: AC3

Видео: 1280х720 (16:9), 25 fps, AVC MPEG-4 (x264), High@L4.1, ~ 2569 kbps avg, 0.112 bit/pixel
Аудио#1: 48 kHz, AC3, 2/0 (L,R) ch, ~192 kbps
Режиссером сериала стала Мария Маханько, работавшая ранее над фильмами «Диагноз: любовь», «Мужская женская игра» и «Егорино горе». По словам Маханько, эта картина расскажет о том, как сильно меняются жизненные приоритеты людей в зависимости от их окружения. «Для меня это история о том, как избалованная московская девочка, совершенно не зная жизни, вдруг попадает в другую среду. Оказавшись среди незнакомых людей, в непривычной обстановке, у нее происходит переоценка ценностей. Очень скоро героиня фильма понимает, какие отзывчивые и искренние люди живут в глубинке, и это осознание помогает измениться и ей самой», — рассказала режиссер.
О съемках:
Мария Маханько призналась, что снимать в Сибири у творческой команды не было возможности. Поэтому было решено искать подходящие пейзажи в ближайших районах. В итоге большинство сцен снимались в подмосковных Бронницах, сосновый бор нашли в Одинцово, а Енисеем стала река Москва. Кроме того, режиссер также отметила, что специально для вымышленного города Марийска художник-постановщик проекта Игорь Морозов нарисовал герб, на котором изображены сосна и лошадь.
Общее
Уникальный идентификатор : 238990307652184127021932123322399507025 (0xB3CBDBE6EFD234178D5AEA80A30EC251)
Полное имя : C:\Из Сибири с любовью.2016.720p.\01.mkv
Формат : Matroska
Версия формата : Version 2
Размер файла : 867 Мбайт
Продолжительность : 44 м. 5 с.
Общий поток : 2751 Кбит/сек
Дата кодирования : UTC 2017-01-12 11:41:41
Программа кодирования : mkvmerge v6.1.0 ('Old Devil') built on Mar 4 2013 09:10:42
Библиотека кодирования : libebml v1.3.0 + libmatroska v1.4.0

Видео
Идентификатор : 1
Формат : AVC
Формат/Информация : Advanced Video Codec
Профиль формата : High@L4
Параметр CABAC формата : Да
Параметр ReFrames формата : 4 кадра
Идентификатор кодека : V_MPEG4/ISO/AVC
Продолжительность : 44 м. 5 с.
Битрейт : 2569 Кбит/сек
Ширина : 1280 пикселей
Высота : 720 пикселей
Соотношение сторон : 16:9
Режим частоты кадров : Постоянный
Частота кадров : 25,000 кадров/сек
Цветовое пространство : YUV
Субдискретизация насыщенности : 4:2:0
Битовая глубина : 8 бит
Тип развёртки : Прогрессивная
Бит/(Пиксели*Кадры) : 0.112
Размер потока : 790 Мбайт (91%)
Библиотека кодирования : x264 core 142
Настройки программы : cabac=1 / ref=3 / deblock=1:0:0 / analyse=0x3:0x113 / me=hex / subme=7 / psy=1 / psy_rd=1.00:0.00 / mixed_ref=1 / me_range=16 / chroma_me=1 / trellis=1 / 8x8dct=1 / cqm=0 / deadzone=21,11 / fast_pskip=1 / chroma_qp_offset=-2 / threads=36 / lookahead_threads=5 / sliced_threads=0 / nr=0 / decimate=1 / interlaced=0 / bluray_compat=0 / constrained_intra=0 / bframes=6 / b_pyramid=2 / b_adapt=1 / b_bias=0 / direct=1 / weightb=1 / open_gop=0 / weightp=2 / keyint=200 / keyint_min=20 / scenecut=0 / intra_refresh=0 / rc_lookahead=40 / rc=2pass / mbtree=1 / bitrate=2569 / ratetol=1.0 / qcomp=0.60 / qpmin=0 / qpmax=69 / qpstep=4 / cplxblur=20.0 / qblur=0.5 / vbv_maxrate=3854 / vbv_bufsize=10279 / nal_hrd=none / filler=0 / ip_ratio=1.40 / aq=1:1.00
Язык : English
Default : Да
Forced : Нет

Аудио
Идентификатор : 2
Формат : AC-3
Формат/Информация : Audio Coding 3
Расширение режима : CM (complete main)
Параметр Endianness формата : Big
Идентификатор кодека : A_AC3
Продолжительность : 44 м. 5 с.
Вид битрейта : Постоянный
Битрейт : 192 Кбит/сек
Каналы : 2 канала
Расположение каналов : Front: L R
Частота : 48,0 КГц
Частота кадров : 31,250 кадров/сек (1536 spf)
Битовая глубина : 16 бит
Метод сжатия : С потерями
Размер потока : 60,5 Мбайт (7%)
Default : Да
Forced : Нет
скриншот   скриншот   скриншот   скриншот  
pb.wtf



Скачать Из Сибири с любовью через торрент http://s019.radikal.ru/i626/1701/fb/98f3e47c6d00.png Скачать фильм Из Сибири с любовью через торрент бесплантно в хорошем качестве Описание: У своенравной Анастасии две мечты: выйти замуж за Никиту Басова и получить свободу от своего властного деда Вениамина. Однако ... 10 10 7
Торрент: Зарегистрирован [2017-01-13 09:40] · скачан: 87 раз
Статус: √ проверено
Размер: 3.39 GB
Как cкачать? Как скачать Из Сибири с любовью через торрент | qTorrent

28-11-2019 20:33  

Отключить всю рекламу на сайте

13-01-2017 10:04 Из Сибири с любовью Скачать торрент  

pb.wtf



    Дорогой пользователь! Огромная просьба, поблагодарите релизера, оцените раздачу и оставьте свои комментарий, если Вы скачали Из Сибири с любовью через торрент бесплатно! Внесите свою лепту в развитие PiratBit!
    Комментировать посты могут только пользователи прошедшие не сложную регистрацию
    Показать сообщения:    

    Из Сибири с любовью через торрент
    Скачать бесплатно Из Сибири с любовью
    Из Сибири с любовью скачать торрент
    Из Сибири с любовью смотреть онлайн
    Cкачать фильм Из Сибири с любовью бесплатно
    Из Сибири с любовью скачать торрент в хорошем качестве
    Из Сибири с любовью смотреть онлайн бесплатно в хорошем качестве


    Вы не можете начинать темы
    Вы не можете отвечать на сообщения
    Вы не можете редактировать свои сообщения
    Вы не можете удалять свои сообщения
    Вы не можете голосовать в опросах
    Вы не можете прикреплять файлы к сообщениям
    Вы можете скачивать файлы