Ссылка на приватное зеркало нашего сайта всего за 1$. Внимание количество ограничено!!!

2 сезон

iTunes

1 сезон

1

2 сезон

2 сезон

iTunes

1 сезон

RePack

30

Новинка

ВАЖНО

ИГРА 18+

pack

RePack

MK11
pack

Забери бонус

RePack

jed

!!Акция!!

Alien_Rage

RePack

fifa19

RePack

Assassins Creed: Odyssey

RePack

NEED FOR SPEED™ PAYBACK

4 сезон

9 сезон

Бесстыжие 9 сезон

Все сериалы

все сериалы на PB.wtf

RePack

FAR CRY 5
  

Человек на Кэррион-роуд / The Hollow Point (Гонсало Лопес-Гальего) [2016, триллер, криминал, BDRip 1080p] Любительский одноголосый [BadBajo] pb.wtf

Человек на Кэррион-роуд через торрент pb.wtf

Размер: 7.42 GB | Добавлен: 3 года 10 мес. назад | Торрент скачан:124 раза
Скачать  

13-01-2017 12:57 Человек на Кэррион-роуд Скачать торрент  

Человек на Кэррион-роуд / The Hollow Point

Год выпуска: 2016
Страна: США
Жанр: триллер, криминал
Продолжительность: 01:37:10
Перевод: Любительский одноголосый [BadBajo]
Примечание: Релиз без рекламы
Субтитры: английские
Режиссер: Гонсало Лопес-Гальего
В ролях:

Патрик Уилсон (Wallace), Иэн МакШейн (Leland), Джон Легуизамо (Atticus), Линн Коллинс (Marla), Джеймс Белуши (Shep Diaz), Дебора Ли Дуглас (Christina (American)), Хезер Бирс (Ellie), Karli Hall (Lilly), Майкл Флинн (Jesse), Нэйтан Стивенс (Clive Mercy), Дэвид Фернандез (Eugenio), Дэвид Стивенс (Ken Mercey)
Описание:
В городке рядом с мексиканской границей новый шериф. Предыдущий уже стар и почти не просыхает. И сразу же шериф Уоллес натыкается на незаконную торговлю боеприпасами и сталкивается с профессиональным убийцей.
Рейтинг:

MPAA: R - Лицам до 17 лет обязательно присутствие взрослого
Качество: BDRip 1080p
Формат: MKV
Видео: AVC, 1920x800 (2.40:1), 9043 kbps, 23,976 fps, 0,240 bpp
Аудио №1: русский / AC3 / 5.1 / 48 kHz / 384 kbps / |VO, BadBajo|
Аудио №2: английский / DTS / 5.1 / 48 kHz / 1509 kbps / 24 bit
Навигация по главам: есть
Релиз от: NNMClub

Общее
Уникальный идентификатор : 242133962582492076814436091847303044892 (0xB6294E0E856DADCDA13DEBF533691F1C)
Полное имя : E:\The.Hollow.Point.2016.BDRip.1080p.mkv
Формат : Matroska
Версия формата : Version 4 / Version 2
Размер файла : 7,42 Гбайт
Продолжительность : 1 ч. 37 м.
Общий поток : 10,9 Мбит/сек
Название фильма : The Hollow Point ( 2016) BDRip 1080p
Дата кодирования : UTC 2017-01-13 12:46:22
Программа кодирования : mkvmerge v9.7.1 ('Pandemonium') 64bit
Библиотека кодирования : libebml v1.3.4 + libmatroska v1.4.5

Видео
Идентификатор : 1
Формат : AVC
Формат/Информация : Advanced Video Codec
Профиль формата : High@L4.1
Параметр CABAC формата : Да
Параметр ReFrames формата : 4 кадра
Идентификатор кодека : V_MPEG4/ISO/AVC
Продолжительность : 1 ч. 37 м.
Битрейт : 9043 Кбит/сек
Ширина : 1920 пикселей
Высота : 800 пикселей
Соотношение сторон : 2,40:1
Режим частоты кадров : Постоянный
Частота кадров : 23,976 (24000/1001) кадра/сек
Цветовое пространство : YUV
Субдискретизация насыщенности : 4:2:0
Битовая глубина : 8 бит
Тип развёртки : Прогрессивная
Бит/(Пиксели*Кадры) : 0.246
Размер потока : 6,14 Гбайт (83%)
Библиотека кодирования : x264 core 142 r2431+42 c69a006 tMod [8-bit@4:2:0 X86_64]
Настройки программы : cabac=1 / ref=4 / deblock=1:-3:-3 / analyse=0x3:0x113 / me=umh / subme=10 / psy=1 / fade_compensate=0.00 / psy_rd=1.00:0.05 / mixed_ref=1 / me_range=48 / chroma_me=1 / trellis=2 / 8x8dct=1 / cqm=0 / deadzone=21,11 / fast_pskip=0 / chroma_qp_offset=-2 / threads=12 / lookahead_threads=2 / sliced_threads=0 / nr=0 / decimate=1 / interlaced=0 / bluray_compat=0 / constrained_intra=0 / fgo=0 / bframes=8 / b_pyramid=2 / b_adapt=2 / b_bias=0 / direct=3 / weightb=1 / open_gop=0 / weightp=2 / keyint=250 / keyint_min=23 / scenecut=40 / intra_refresh=0 / rc_lookahead=40 / rc=crf / mbtree=0 / crf=19.0000 / qcomp=0.60 / qpmin=0:0:0 / qpmax=69:69:69 / qpstep=4 / vbv_maxrate=50000 / vbv_bufsize=45000 / crf_max=0.0 / nal_hrd=none / filler=0 / ip_ratio=1.40 / pb_ratio=1.30 / aq=3:1.00 / aq-sensitivity=10.00 / aq-factor=1.00:1.00:1.00 / aq2=0 / aq3=0
Язык : English
Default : Да
Forced : Нет
Цветовой диапазон : Limited
Коэффициенты матрицы : BT.709

Аудио #1
Идентификатор : 2
Формат : AC-3
Формат/Информация : Audio Coding 3
Расширение режима : CM (complete main)
Параметр Endianness формата : Big
Идентификатор кодека : A_AC3
Продолжительность : 1 ч. 37 м.
Вид битрейта : Постоянный
Битрейт : 384 Кбит/сек
Каналы : 6 каналов
Расположение каналов : Front: L C R, Side: L R, LFE
Частота : 48,0 КГц
Частота кадров : 31,250 кадров/сек (1536 spf)
Битовая глубина : 16 бит
Метод сжатия : С потерями
Размер потока : 267 Мбайт (4%)
Заголовок : VO, BadBajo
Язык : Russian
Default : Да
Forced : Нет

Аудио #2
Идентификатор : 3
Формат : DTS
Формат/Информация : Digital Theater Systems
Режим : 16
Параметр Endianness формата : Big
Идентификатор кодека : A_DTS
Продолжительность : 1 ч. 37 м.
Вид битрейта : Постоянный
Битрейт : 1509 Кбит/сек
Каналы : 6 каналов
Расположение каналов : Front: L C R, Side: L R, LFE
Частота : 48,0 КГц
Частота кадров : 93,750 кадра/сек (512 spf)
Битовая глубина : 24 бит
Метод сжатия : С потерями
Размер потока : 1,02 Гбайт (14%)
Заголовок : Оригинал
Язык : English
Default : Нет
Forced : Нет

Текст
Идентификатор : 4
Формат : UTF-8
Идентификатор кодека : S_TEXT/UTF8
Идентификатор кодека/Информация : UTF-8 Plain Text
Продолжительность : 1 ч. 33 м.
Битрейт : 42 бит/сек
Count of elements : 824
Размер потока : 29,2 Кбайт (0%)
Язык : English
Default : Нет
Forced : Нет

Меню
00:00:00.000 : en:Opening Sequence
00:07:52.000 : en:You Deserve Better
00:14:45.000 : en:He's Missing
00:19:22.000 : en:Bring Him Home
00:26:30.000 : en:It's Coming
00:32:10.000 : en:Who Did This
00:38:31.000 : en:I Need To Talk
00:45:02.000 : en:Why Wasn't I Good
00:52:44.000 : en:Good People Disappearing
00:57:13.000 : en:Gonna Shot
01:03:56.000 : en:Something Terrible
01:10:03.000 : en:I'm Being Tested
01:16:16.000 : en:Where Are You
01:22:23.000 : en:Try Something Stupid
01:28:50.000 : en:Keep Driving
01:33:20.000 : en:End Credits
pb.wtf



Скачать Человек на Кэррион-роуд через торрент http://i5.imageban.ru/out/2017/01/13/09b087a2967b670796c213d90c782301.jpg Скачать фильм Человек на Кэррион-роуд через торрент бесплантно в хорошем качестве Описание: В городке рядом с мексиканской границей новый шериф. Предыдущий уже стар и почти не просыхает. И сразу же шериф Уоллес натыкается ... 9.3 10 4
Торрент: Зарегистрирован [2017-01-13 12:58] · скачан: 124 раз
Статус: T временная
Размер: 7.42 GB
Как cкачать? Как скачать Человек на Кэррион-роуд через торрент | qTorrent

% Раздел Тема Автор DL S | L
Фильмы с авторской озвучкой [ 6.07 GB ] Человек на Кэррион-роуд / The Hollow Point [2016 BDRip 720p] AVO [М.Чадов] bober100 Скачать
1 | 0
Фильмы с авторской озвучкой [ 11.85 GB ] Человек на Кэррион-роуд / The Hollow Point [2016 BDRip 1080p] AVO [М.Чадов] bober100 Скачать
1 | 0
Фильмы (Blu-ray, BD-Remux, HDDVD) [ 19.14 GB ] Человек на Кэррион-роуд / The Hollow Point [2016 BDRemux 1080p] от ExKinoRay / AVO Russian Mafia Скачать
1 | 0
Фильмы с авторской озвучкой [ 1.46 GB ] Человек на Кэррион-роуд / The Hollow Point [2016 BDRip] Авторский [Михаил Чадов] Twi7ter Скачать
1 | 0
T Фильмы 2016 (Звук TS, Cam, VO, DVO) [ 1.36 GB ] Человек на Кэррион-роуд / The Hollow Point [2016 WEB-DLRip] VO [BadBajo] bober100 Скачать
1 | 0

28-11-2019 20:33  

Отключить всю рекламу на сайте

    Дорогой пользователь! Огромная просьба, поблагодарите релизера, оцените раздачу и оставьте свои комментарий, если Вы скачали Человек на Кэррион-роуд через торрент бесплатно! Внесите свою лепту в развитие PiratBit!
    Комментировать посты могут только пользователи прошедшие не сложную регистрацию
    Показать сообщения:    

    Человек на Кэррион-роуд через торрент
    Скачать бесплатно Человек на Кэррион-роуд
    Человек на Кэррион-роуд скачать торрент
    Человек на Кэррион-роуд смотреть онлайн
    Cкачать фильм Человек на Кэррион-роуд бесплатно
    Человек на Кэррион-роуд скачать торрент в хорошем качестве
    Человек на Кэррион-роуд смотреть онлайн бесплатно в хорошем качестве


    Вы не можете начинать темы
    Вы не можете отвечать на сообщения
    Вы не можете редактировать свои сообщения
    Вы не можете удалять свои сообщения
    Вы не можете голосовать в опросах
    Вы не можете прикреплять файлы к сообщениям
    Вы можете скачивать файлы