Лицензия

MVO

1

1 сезон

Лицензия

Лицензия

13

MVO

1 сезон

Deluxe Edition

pack

Рекомендуем

30

Repack

ВАЖНО

ВАЖНО

Ghostwire

RePack

jed

RePack

fifa19

RePack

RDR2

RePack

NEED FOR SPEED™ PAYBACK

RePack

Кинопоиск HD

 Острые козырьки 6 сезон

6 сезон

FAR CRY 6

RePack

Лицензия

MVO

1

1 сезон

1 сезон

Лицензия

  

Принцесса Лебедь / The Swan Princess (Ричард Рич ) [1994, мультфильм, мюзикл, фэнтези, WEBRip 1080p] Дубляж

Принцесса Лебедь через торрент pb.wtf

Качают: 1 [ 0 KB/s ]
Размер: 6.33 GB | Добавлен: 5 лет 8 мес. назад | Торрент скачан:176 раз
Смотреть онлайн Принцесса Лебедь | Скачать   

14-01-2017 06:50 Принцесса Лебедь Скачать торрент  

Принцесса Лебедь / The Swan Princess

Год выпуска: 1994
Страна: США
Жанр: мультфильм, мюзикл, фэнтези, мелодрама, комедия, семейный

Продолжительность: 01:29:09
Перевод: Дубляж
Режиссер: Ричард Рич
В ролях: Мишель Никастро (Adult Princess Odette, озвучка), Говард МакДжиллин (Adult Prince Derek, озвучка), Джек Пэланс (Lord Rothbart, озвучка), Лиз Колэуэй (Princess Odette, исполнитель песни), Джон Клиз (Jean-Bob, озвучка), Стивен Райт (Speed, озвучка), Стив Винович (Puffin, озвучка), Марк Харелик (Lord Rogers, озвучка), Джеймс Аррингтон (Chamberlain, озвучка), Дэвис Гейнс (Chamberlain, исполнитель песни), Джоэль МакКиннон Миллер (Bromley, озвучка), Дэкин Мэтьюз (King William, озвучка)
Описание:
В те сказочные времена, когда на земле повсюду были заколдованные замки, таинственные лесные чащи, фантастические животные и злые колдуны, случилась эта история. История прекрасной принцессы, превращенной злым волшебником Ротбартом в лебедя, ее возлюбленного, принца Дерека, всех чудесных созданий, живших на берегу Лебединого озера, их любви, дружбы и борьбы со злом.
Рейтинг:

MPAA: G - Нет возрастных ограничений
Качество: WEBRip 1080p
Формат: MKV
Видео: AVC, 1920x1080 (16:9), 9999 kbps, 23,976 fps, 0,201 bpp
Аудио №1: русский / AC3 / 2.0 / 48 kHz / 192 kbps / ||
Аудио №2: английский / AAC LC / 2.0 / 48 kHz / 125 kbps /

General
Unique ID : 248994849892220290022272708212913936291 (0xBB52A9EAE6CBF4D89D94F2E44DE917A3)
Complete name : D:\Proba\The.Swan.Princess.1994.1080p.WEBRip.AAC2.0.x264-TrollHD\The.Swan.Princess.1994.1080p.WEBRip.mkv
Format : Matroska
Format version : Version 4 / Version 2
File size : 6.33 GiB
Duration : 1 h 29 min
Overall bit rate : 10.2 Mb/s
Encoded date : UTC 2017-01-12 15:49:24
Writing application : mkvmerge v9.5.0 ('Quiet Fire') 64bit
Writing library : libebml v1.3.4 + libmatroska v1.4.5

Video
ID : 1
Format : AVC
Format/Info : Advanced Video Codec
Format profile : [email protected]
Format settings, CABAC : Yes
Format settings, ReFrames : 4 frames
Codec ID : V_MPEG4/ISO/AVC
Duration : 1 h 29 min
Bit rate mode : Constant
Bit rate : 10 000 kb/s
Width : 1 920 pixels
Height : 1 080 pixels
Display aspect ratio : 16:9
Frame rate mode : Constant
Frame rate : 23.976 (24000/1001) FPS
Color space : YUV
Chroma subsampling : 4:2:0
Bit depth : 8 bits
Scan type : Progressive
Bits/(Pixel*Frame) : 0.201
Stream size : 6.13 GiB (97%)
Language : English
Default : Yes
Forced : No
Color range : Limited
Color primaries : BT.709
Transfer characteristics : BT.709
Matrix coefficients : BT.709

Audio #1
ID : 2
Format : AC-3
Format/Info : Audio Coding 3
Format profile : Dolby Digital
Mode extension : CM (complete main)
Format settings, Endianness : Big
Codec ID : A_AC3
Duration : 1 h 29 min
Bit rate mode : Constant
Bit rate : 192 kb/s
Channel(s) : 2 channels
Channel positions : Front: L R
Sampling rate : 48.0 kHz
Frame rate : 31.250 FPS (1536 spf)
Compression mode : Lossy
Delay relative to video : 28 ms
Stream size : 122 MiB (2%)
Language : Russian
Default : Yes
Forced : No

Audio #2
ID : 3
Format : AAC
Format/Info : Advanced Audio Codec
Format profile : LC
Codec ID : A_AAC
Duration : 1 h 29 min
Bit rate : 125 kb/s
Channel(s) : 2 channels
Channel positions : Front: L R
Sampling rate : 48.0 kHz
Frame rate : 46.875 FPS (1024 spf)
Compression mode : Lossy
Stream size : 80.0 MiB (1%)
Language : English
Default : No
Forced : No



Скачать Принцесса Лебедь через торрент http://i4-imageban-ru.translate.goog/out/2017/01/14/564ff00f55f9afcede0f49bb4cd85efa.jpg Скачать, смотреть онлайн Принцесса Лебедь бесплантно в хорошем качестве Описание: В те сказочные времена, когда на земле повсюду были заколдованные замки, таинственные лесные чащи, фантастические животные и злые ... 8 10 9
Торрент: Зарегистрирован [2017-01-14 06:50] · скачан: 176 раз
Статус: T временная
Размер: 6.33 GB
Как cкачать? Как скачать Принцесса Лебедь через торрент | UTorrent

28-11-2019 20:33  

Отключить вcю реклaмy на сайте

22-03-2017 19:37 Принцесса Лебедь Скачать торрент  

пересмотрю,очень давно в детстве смотрел



    Дорогой пользователь! Огромная просьба, поблагодарите релизера, оцените раздачу и оставьте свои комментарий, если Вы скачали Принцесса Лебедь через торрент бесплатно!!
    Комментировать посты могут только пользователи прошедшие не сложную регистрацию
    Показать сообщения:    


    Принцесса Лебедь через торрент
    Скачать бесплатно Принцесса Лебедь
    Принцесса Лебедь скачать торрент
    Принцесса Лебедь смотреть онлайн
    Cкачать фильм Принцесса Лебедь бесплатно
    Принцесса Лебедь скачать торрент в хорошем качестве
    Принцесса Лебедь смотреть онлайн бесплатно в хорошем качестве
    Вы не можете начинать темы
    Вы не можете отвечать на сообщения
    Вы не можете редактировать свои сообщения
    Вы не можете удалять свои сообщения
    Вы не можете голосовать в опросах
    Вы не можете прикреплять файлы к сообщениям
    Вы можете скачивать файлы