новый адрес пиратбит piratbit
Мега распродажа FORZA HORIZON 4 ULTIMATE+ВСЕ DLC+ОНЛАЙН всего за 499р. 349 руб. (супер цена). Внимание количество ограничено!!!

iTunes

1+1

iTunes

мы

iTunes

1

iTunes

Чернобыль

iTunes

Ральф против интернета

Лицензия

ПШазам

Лицензия

Игра престолов

Лицензия

30
pack

ВАЖНО

!!Акция!!

Alien_RageХит недели

RePack

Resident Evil 21

ИГРА 18+

pack

RePack

Metro:Exodus

!!Акция!!

Alien_Rage

RePack

fifa19

RePack

Assassins Creed: Odyssey

RePack

NEED FOR SPEED™ PAYBACK

3 сезон

9 сезон

Бесстыжие 9 сезон

Все сериалы

все сериалы на PB.wtf

RePack

FAR CRY 5
Ребята, катастрофически не хватает 1900р. для оплаты серверов за Октябрь (всвязи с блокировками трафик упал в 3 раза), 1-2р., выручайте.
  

Первая конная (Владимир Любомудров) [1984, СССР, военный, история, DVDRip от AVP Studio] pb.wtf

Первая конная через торрент pb.wtf

Размер: 1.09 GB | Добавлен: 2 года 9 мес. назад | Торрент скачан:18 раз
Скачать  

14-01-2017 10:36 Первая конная Скачать торрент  

Первая конная
Страна: СССР
Производство: Мосфильм

Жанр: военный, история
Год выпуска: 1984
Продолжительность: 2:08:42 (01:03:54 + 01:04:48)

Перевод: не требуется
Оригинальная аудиодорожка: русский
Cубтитры: нет

Режиссер: Владимир Любомудров

В ролях:
Вадим Спиридонов, Евгений Жариков, Всеволод Ларионов, Алексей Ванин, Георгий Мартынюк, Александр Ермаков, Нуржуман Ихтымбаев, Александр Потапов, Владимир Приходько, Виктор Филиппов, Евгений Леонов-Гладышев, Юрий Назаров, Борис Химичев, Виктор Павлов, Андрей Ростоцкий, Светлана Тормахова, Елена Проклова, Наталья Аринбасарова, Елена Драпеко, Владимир Качан, Сергей Проханов, Владимир Кашпур, Антон Табаков, Станислав Чекан, Михаил Кокшенов, Вячеслав Глушков, Геннадий Юхтин, Александр Январёв, Геннадий Корольков, Роман Хомятов, Виктор Шульгин, Андрей Юренев, Олег Измайлов...
Об актёрах подробней

Описание:
Фильм-легенда, в основе которого один будничный день и один героический бой Первой конной армии под командованием Семёна Михайловича Будённого.

Исходник: DVD9 R5
Тип релиза: DVDRip
Контейнер: AVI

Видео: 688x288 (2,40:1), 25 fps, XviD ~ 1010 kbps avg, 0.204 bit/pixel
Аудио: 48 kHz, Dolby AC3 2.0, 192 kbps

Раздача от:
Полное имя : Pervaya.konnaya.1984.DVDRip_[New-team]_by_AVP_Studio\01.avi
Формат : AVI
Формат/Информация : Audio Video Interleave
Размер файла : 554 Мбайт
Продолжительность : 1 ч. 3 м.
Общий поток : 1212 Кбит/сек
Программа кодирования : VirtualDubMod 1.5.10.3 | www.virtualdub-fr.org || (build 2550/release)
Библиотека кодирования : VirtualDubMod build 2550/release

Видео
Идентификатор : 0
Формат : MPEG-4 Visual
Профиль формата : Advanced Simple@L5
Параметр BVOP формата : 1
Параметр QPel формата : Нет
Параметр GMC формата : Без точки перехода
Параметр матрицы формата : Выборочная
Идентификатор кодека : XVID
Идентификатор кодека/Подсказка : XviD
Продолжительность : 1 ч. 3 м.
Битрейт : 1010 Кбит/сек
Ширина : 688 пикселей
Высота : 288 пикселей
Соотношение сторон : 2,40:1
Частота кадров : 25,000 кадров/сек
Цветовое пространство : YUV
Субдискретизация насыщенности : 4:2:0
Битовая глубина : 8 бит
Тип развёртки : Прогрессивная
Метод сжатия : С потерями
Бит/(Пиксели*Кадры) : 0.204
Размер потока : 462 Мбайт (83%)
Библиотека кодирования : XviD 73

Аудио
Идентификатор : 1
Формат : AC-3
Формат/Информация : Audio Coding 3
Расширение режима : CM (complete main)
Параметр Endianness формата : Big
Идентификатор кодека : 2000
Продолжительность : 1 ч. 3 м.
Вид битрейта : Постоянный
Битрейт : 192 Кбит/сек
Каналы : 2 канала
Расположение каналов : Front: L R
Частота : 48,0 КГц
Частота кадров : 31,250 кадров/сек (1536 spf)
Битовая глубина : 16 бит
Метод сжатия : С потерями
Размер потока : 87,8 Мбайт (16%)
Выравнивание : Разделение по промежуткам
Продолжительность промежутка : 40 мс. (1,00 видеокадр)
Время предзагрузки промежутка : 500 мс
pb.wtf



Скачать Первая конная через торрент http://s020.radikal.ru/i709/1701/04/3b981a4c0d9f.png Скачать фильм Первая конная через торрент бесплантно в хорошем качестве Описание:Фильм-легенда, в основе которого один будничный день и один героический бой Первой конной армии под командованием Семёна ... 5 10 1
Info! Золотая раздача, скачанное не засчитывается.
Торрент: Зарегистрирован [2017-01-14 10:36] · скачан: 18 раз
Статус: √ проверено
Размер: 1.09 GB
Как cкачать? Как скачать Первая конная через торрент | qTorrent

% Раздел Тема Автор DL S | L
Фантастика [ 649 MB ] Виталий Останин - Остерия "Старый Конь". Дело Первое: Кьята [Илья Дементьев 2018 256 kbps MP3] oleg8 Скачать
1 | 0
Кино СССР [ 1.09 GB ] Первая конная [1984 СССР военный история DVDRip-AVC от AVP Studio] AVP Studio Скачать
1 | 0
Кино СССР [ 1.46 GB ] Первая Конная [1941 военный история DVDRip от New-Team] Ворон Скачать
1 | 0
Кино СССР [ 1.16 GB ] Первая конная [1984 военный история SATRip] Assasinca Скачать
1 | 0


>> Регистрируемся здесь <<






Отзывы и комментарии о схеме читаем и пишем здесь: ---> Отзывы и комментарии о схеме

Новые благодарочки в телеграм довольных пользователей:
скриншот   скриншот   скриншот   скриншот   скриншот
    Дорогой пользователь! Огромная просьба, поблагодарите релизера, оцените раздачу и оставьте свои комментарий, если Вы скачали Первая конная через торрент бесплатно! Внесите свою лепту в развитие PiratBit!
    Комментировать посты могут только пользователи прошедшие не сложную регистрацию
    Показать сообщения:    

    Первая конная через торрент
    Скачать бесплатно Первая конная
    Первая конная скачать торрент
    Первая конная смотреть онлайн
    Cкачать фильм Первая конная бесплатно
    Первая конная скачать торрент в хорошем качестве
    Первая конная смотреть онлайн бесплатно в хорошем качестве


    Вы не можете начинать темы
    Вы не можете отвечать на сообщения
    Вы не можете редактировать свои сообщения
    Вы не можете удалять свои сообщения
    Вы не можете голосовать в опросах
    Вы не можете прикреплять файлы к сообщениям
    Вы можете скачивать файлы