Ссылка на приватное зеркало нашего сайта всего за 1$. Внимание количество ограничено!!!

2 сезон

iTunes

1 сезон

1

iTunes

iTunes

iTunes

1 сезон

RePack

30

ИГРА 18+

pack

ВАЖНО

!!Акция!!

Alien_RageХит недели

RePack

MK11
pack

Забери бонус

RePack

jed

!!Акция!!

Alien_Rage

RePack

fifa19

RePack

Assassins Creed: Odyssey

RePack

NEED FOR SPEED™ PAYBACK

4 сезон

9 сезон

Бесстыжие 9 сезон

Все сериалы

все сериалы на PB.wtf

RePack

FAR CRY 5
  

Крестоносцы / Krzyżacy (Александр Форд) [1960, драма, мелодрама, приключения, военный, история, BDRip 1080p by msltel] DUB, MVO pb.wtf

Крестоносцы через торрент pb.wtf

Размер: 18.78 GB | Добавлен: 3 года 9 мес. назад | Торрент скачан:30 раз
Скачать  

14-01-2017 11:26 Крестоносцы Скачать торрент  

Название: Крестоносцы
Оригинальное название: Krzyżacy
Год выпуска: 1960
Страна: Польша
Жанр: драма, мелодрама, приключения, военный, история
Продолжительность: 02:52:38
Перевод: дублированный, профессиональный многоголосый

Режиссёр: Александр Форд

В ролях: Уршуля Моджиньская, Гражина Станишевская, Анджей Шалявский, Хенрик Боровский, Мечислав Каленик, Александр Фогель, Эмиль Каревич, Люцина Винницка, Тадеуш Бялощиньский, Тадеуш Косударский, Мечислав Войт, Януш Страхоцкий, Станислав Ясюкевич, Леон Немчик, Збигнев Сковроньский, Мечислав Стоор, Влодзимеж Скочиляс, Северин Бутрым, Барбара Хоравянка, Алиция Кравчик, Ирена Лясковская, Тереса Ляссота, Богдан Баэр, Людвик Бенуа, Роман Вильхельми

Описание: В фильме рассказывается о борьбе поляков против рыцарей Тевтонского ордена в конце XIV — начале XV века. После нападения на одно из селений была убита жена князя Юранда. Он поклялся мстить тевтонцам до последней капли крови… Киноверсия романа Генриха Сенкевича.



Качество: BDRip 1080p
Формат: MKV
Видео: MPEG-4 AVC, 13.5 Mбит/с, 1920x816, 24 Кадр/с
Аудио 1: русский, AC3, 256 kbps, 2 ch, 48 kHz [дублированный]
Аудио 2: русский, AC3, 256 kbps, 2 ch, 48 kHz [профессиональный многоголосый]
Аудио 3: польский, DTS, 1509 kbps, 6 ch, 48 kHz [оригинал]
Имеются неименованные главы/чаптеры.
Общее
Уникальный идентификатор : 177028593819153628064047255119207583993 (0x852E778C52A8A083B380A03D7CAFD0F9)
Полное имя : D:\Video\Крестоносцы.1960.BDRip.1080p by msltel.mkv
Формат : Matroska
Версия формата : Version 4 / Version 2
Размер файла : 18,8 Гбайт
Продолжительность : 2 ч. 52 м.
Общий поток : 15,6 Мбит/сек
Название фильма : Rip by msltel
Дата кодирования : UTC 2017-01-14 09:18:42
Программа кодирования : mkvmerge v8.2.0 ('World of Adventure') 64bit
Библиотека кодирования : libebml v1.3.1 + libmatroska v1.4.2

Видео
Идентификатор : 1
Формат : AVC
Формат/Информация : Advanced Video Codec
Профиль формата : High@L4.1
Параметр CABAC формата : Да
Параметр ReFrames формата : 4 кадра
Идентификатор кодека : V_MPEG4/ISO/AVC
Продолжительность : 2 ч. 52 м.
Битрейт : 13,5 Мбит/сек
Ширина : 1920 пикселей
Высота : 816 пикселей
Соотношение сторон : 2,35:1
Режим частоты кадров : Постоянный
Частота кадров : 24,000 кадра/сек
Цветовое пространство : YUV
Субдискретизация насыщенности : 4:2:0
Битовая глубина : 8 бит
Тип развёртки : Прогрессивная
Бит/(Пиксели*Кадры) : 0.360
Размер потока : 16,3 Гбайт (87%)
Библиотека кодирования : x264 core 146 r2538 121396c
Настройки программы : cabac=1 / ref=4 / deblock=1:-3:-2 / analyse=0x3:0x113 / me=umh / subme=11 / psy=1 / psy_rd=1.00:0.15 / mixed_ref=1 / me_range=32 / chroma_me=1 / trellis=2 / 8x8dct=1 / cqm=0 / deadzone=21,11 / fast_pskip=0 / chroma_qp_offset=-3 / threads=6 / lookahead_threads=1 / sliced_threads=0 / nr=0 / decimate=1 / interlaced=0 / bluray_compat=0 / constrained_intra=0 / bframes=6 / b_pyramid=2 / b_adapt=2 / b_bias=0 / direct=1 / weightb=1 / open_gop=0 / weightp=2 / keyint=230 / keyint_min=23 / scenecut=40 / intra_refresh=0 / rc_lookahead=40 / rc=crf / mbtree=0 / crf=18.3 / qcomp=0.60 / qpmin=0 / qpmax=69 / qpstep=4 / vbv_maxrate=62500 / vbv_bufsize=78125 / crf_max=0.0 / nal_hrd=none / filler=0 / ip_ratio=1.40 / pb_ratio=1.30 / aq=1:1.00
Язык : Polish
Default : Да
Forced : Нет

Аудио #1
Идентификатор : 2
Формат : AC-3
Формат/Информация : Audio Coding 3
Расширение режима : CM (complete main)
Параметр Endianness формата : Big
Идентификатор кодека : A_AC3
Продолжительность : 2 ч. 52 м.
Вид битрейта : Постоянный
Битрейт : 256 Кбит/сек
Каналы : 2 канала
Расположение каналов : Front: L R
Частота : 48,0 КГц
Частота кадров : 31,250 кадров/сек (1536 spf)
Метод сжатия : С потерями
Размер потока : 316 Мбайт (2%)
Заголовок : DUB
Язык : Russian
Default : Нет
Forced : Нет

Аудио #2
Идентификатор : 3
Формат : AC-3
Формат/Информация : Audio Coding 3
Расширение режима : CM (complete main)
Параметр Endianness формата : Big
Идентификатор кодека : A_AC3
Продолжительность : 2 ч. 52 м.
Вид битрейта : Постоянный
Битрейт : 256 Кбит/сек
Каналы : 2 канала
Расположение каналов : Front: L R
Частота : 48,0 КГц
Частота кадров : 31,250 кадров/сек (1536 spf)
Метод сжатия : С потерями
Размер потока : 316 Мбайт (2%)
Заголовок : MVO
Язык : Russian
Default : Нет
Forced : Нет

Аудио #3
Идентификатор : 4
Формат : DTS
Формат/Информация : Digital Theater Systems
Режим : 16
Параметр Endianness формата : Big
Идентификатор кодека : A_DTS
Продолжительность : 2 ч. 52 м.
Вид битрейта : Постоянный
Битрейт : 1509 Кбит/сек
Каналы : 6 каналов
Расположение каналов : Front: L C R, Side: L R, LFE
Частота : 48,0 КГц
Частота кадров : 93,750 кадра/сек (512 spf)
Битовая глубина : 24 бит
Метод сжатия : С потерями
Размер потока : 1,82 Гбайт (10%)
Заголовок : original
Язык : Polish
Default : Да
Forced : Нет

Меню
00:00:00.000 : en:Chapter 01
00:15:16.500 : en:Chapter 02
00:24:31.458 : en:Chapter 03
00:42:03.875 : en:Chapter 04
01:01:48.333 : en:Chapter 05
01:22:07.041 : en:Chapter 06
01:32:23.250 : en:Chapter 07
01:45:57.125 : en:Chapter 08
02:03:09.916 : en:Chapter 09
02:22:23.125 : en:Chapter 10
02:33:14.416 : en:Chapter 11
02:49:21.458 : en:Chapter 12
pb.wtf



Скачать Крестоносцы через торрент http://s018.radikal.ru/i502/1701/49/32f00fabafb9.jpg Скачать фильм Крестоносцы через торрент бесплантно в хорошем качестве Описание: В фильме рассказывается о борьбе поляков против рыцарей Тевтонского ордена в конце XIV — начале XV века. После нападения на одно ... 6.4 10 5
Info! Золотая раздача, скачанное не засчитывается.
Торрент: Зарегистрирован [2017-01-14 11:26] · скачан: 30 раз
Статус: √ проверено
Размер: 18.78 GB
Как cкачать? Как скачать Крестоносцы через торрент | qTorrent

% Раздел Тема Автор DL S | L
Фильмы [HD 720p, 1080p] (Хороший звук DUB, MVO) [ 6.59 GB ] Крестоносцы / Krzyżacy [1960 военный история BDRip 720p by msltel] DUB MVO msltel Скачать
1 | 0

28-11-2019 20:33  

Отключить всю рекламу на сайте

    Дорогой пользователь! Огромная просьба, поблагодарите релизера, оцените раздачу и оставьте свои комментарий, если Вы скачали Крестоносцы через торрент бесплатно! Внесите свою лепту в развитие PiratBit!
    Комментировать посты могут только пользователи прошедшие не сложную регистрацию
    Показать сообщения:    

    Крестоносцы через торрент
    Скачать бесплатно Крестоносцы
    Крестоносцы скачать торрент
    Крестоносцы смотреть онлайн
    Cкачать фильм Крестоносцы бесплатно
    Крестоносцы скачать торрент в хорошем качестве
    Крестоносцы смотреть онлайн бесплатно в хорошем качестве


    Вы не можете начинать темы
    Вы не можете отвечать на сообщения
    Вы не можете редактировать свои сообщения
    Вы не можете удалять свои сообщения
    Вы не можете голосовать в опросах
    Вы не можете прикреплять файлы к сообщениям
    Вы можете скачивать файлы