новый адрес
Ссылка на приватное зеркало всего за 1$. Внимание количество ограничено!!!

iTunes

1+1

iTunes

мы

WEB-DL

1

iTunes

Чернобыль

iTunes

Ральф против интернета

Лицензия

ПШазам

Лицензия

Оно 2

Лицензия

30
pack

Вам бонус

ВАЖНО

!!Акция!!

Alien_RageХит недели

RePack

Resident Evil 21

ИГРА 18+

pack

RePack

jed

!!Акция!!

Alien_Rage

RePack

fifa19

RePack

Assassins Creed: Odyssey

RePack

NEED FOR SPEED™ PAYBACK

3 сезон

9 сезон

Бесстыжие 9 сезон

Все сериалы

все сериалы на PB.wtf

RePack

FAR CRY 5
Ребята, катастрофически не хватает 1900р. для оплаты серверов за Октябрь (всвязи с блокировками трафик упал в 3 раза), 1-2р., выручайте.
  

Похищение / Secuestro (Мар Тарганова / Mar Targarona) [2016, Испания, триллер, HDTVRip] VO [BadBajo] pb.wtf

Похищение через торрент pb.wtf

Размер: 1.46 GB | Добавлен: 2 года 10 мес. назад | Торрент скачан:213 раз
Скачать  

15-01-2017 03:10 Похищение Скачать торрент  

Похищение / Secuestro


  • Год выпуска: 2016
  • Страна: Испания
  • Жанр: триллер
  • Продолжительность: 01:45:18
  • Перевод: Любительский (одноголосый) [BadBajo]
  • Режиссер: Мар Тарганова / Mar Targarona
  • В ролях:

    Бланка Портильо (Patricia de Lucas), Антонио Дечент (Ernesto Requena), Висенте Ромеро (Carreño), Marc Domènech (Víctor), Наусикая Боннин (Vicky), Андрес Эррера (Charlie), Хосе Коронадо (Raúl), Макарена Гомес (Raquel), Пако Мансанедо (Escarmentador 1), Сержи Субира (Escarmentador 2), Мариета Санчес (Alba), Ракель Перес (Inés)


  • Жизнь престижного адвоката Патрисии Де Лукас превращается в кошмар после того, как её сын Виктор не возвращается из школы. Спустя несколько часов, весь вспотевший и в синяках, он прибегает, рассказав о том, что некий мужчина пытался его похитить, но ему чудом удалось сбежать. Подозреваемого задерживают, однако, доказательств оказывается недостаточно, и предполагаемого похитителя освобождают. Испугавшись за дальнейшую судьбу сына, Патрисия пытается взять правосудие в свои руки, но ситуация выходит из-под контроля, и теперь последствия её действий будут непредсказуемы...
  • Рейтинг:



  • Качество: HDTVRip
  • Формат: :AVI
  • Видео кодек: XviD
  • Аудио кодек: AC3
  • Видео: 720x304 (2.35:1), 1593 kbps, 24 fps, 0,303 bpp
  • Аудио: 5.1 / 48 kHz / 384 kbps

    General
    Complete name : H:\Secuestro.L1.HDTVRip.avi
    Format : AVI
    Format/Info : Audio Video Interleave
    File size : 1.46 GiB
    Duration : 1 h 45 min
    Overall bit rate : 1 987 kb/s
    Writing application : VirtualDubMod 1.5.10.3 | www.virtualdub-fr.org || (build 2550/release)
    Writing library : VirtualDubMod build 2550/release

    Video
    ID : 0
    Format : MPEG-4 Visual
    Format profile : Advanced Simple@L5
    Format settings, BVOP : 1
    Format settings, QPel : No
    Format settings, GMC : No warppoints
    Format settings, Matrix : Custom
    Codec ID : XVID
    Codec ID/Hint : XviD
    Duration : 1 h 45 min
    Bit rate : 1 593 kb/s
    Width : 720 pixels
    Height : 304 pixels
    Display aspect ratio : 2.35:1
    Frame rate : 24.000 FPS
    Color space : YUV
    Chroma subsampling : 4:2:0
    Bit depth : 8 bits
    Scan type : Progressive
    Compression mode : Lossy
    Bits/(Pixel*Frame) : 0.303
    Stream size : 1.17 GiB (80%)
    Writing library : XviD 73

    Audio
    ID : 1
    Format : AC-3
    Format/Info : Audio Coding 3
    Mode extension : CM (complete main)
    Format settings, Endianness : Big
    Codec ID : 2000
    Duration : 1 h 45 min
    Bit rate mode : Constant
    Bit rate : 384 kb/s
    Channel(s) : 6 channels
    Channel positions : Front: L C R, Side: L R, LFE
    Sampling rate : 48.0 kHz
    Frame rate : 31.250 FPS (1536 spf)
    Compression mode : Lossy
    Stream size : 289 MiB (19%)
    Alignment : Split accross interleaves
    Interleave, duration : 42 ms (1.00 video frame)
    Interleave, preload duration : 500 ms



    Скриншоты:



    pb.wtf



  • Скачать Похищение через торрент http://i89.fastpic.ru/big/2017/0115/b1/773065b82f7e0ec0e2e92404216777b1.jpg Скачать фильм Похищение через торрент бесплантно в хорошем качестве qw.png Жизнь престижного адвоката Патрисии Де Лукас превращается в кошмар после того, как её сын Виктор не возвращается из школы. Спустя ... 8.5 10 6
    Торрент: Зарегистрирован [2017-01-15 03:10] · скачан: 213 раз
    Статус: T временная
    Размер: 1.46 GB
    Как cкачать? Как скачать Похищение через торрент | qTorrent

    28-11-2019 20:33  

    Отключить всю рекламу на сайте


    15-01-2017 03:31 Похищение Скачать торрент  

    ну что народ смотрел кто ?pb.wtf



    15-01-2017 22:00 Похищение Скачать торрент  

    Начало может и для ТВ3, но дальше всё-же интересно. Концовку так и не угадал до самого конца. Так-то в принципе не плохой триллер-детектив, главное потраченного времени не жаль! 6 из 10 (Вполне смотрибельный фильмак)pb.wtf



      Дорогой пользователь! Огромная просьба, поблагодарите релизера, оцените раздачу и оставьте свои комментарий, если Вы скачали Похищение через торрент бесплатно! Внесите свою лепту в развитие PiratBit!
      Комментировать посты могут только пользователи прошедшие не сложную регистрацию
      Показать сообщения:    

      Похищение через торрент
      Скачать бесплатно Похищение
      Похищение скачать торрент
      Похищение смотреть онлайн
      Cкачать фильм Похищение бесплатно
      Похищение скачать торрент в хорошем качестве
      Похищение смотреть онлайн бесплатно в хорошем качестве


      Вы не можете начинать темы
      Вы не можете отвечать на сообщения
      Вы не можете редактировать свои сообщения
      Вы не можете удалять свои сообщения
      Вы не можете голосовать в опросах
      Вы не можете прикреплять файлы к сообщениям
      Вы можете скачивать файлы