Достать ножи: Стеклянная луковица

MVO

Добыча

Дубляж

Уэнсдэй

1 сезон

Тор

Дубляж

13 клиническая

1 сезон

Жестокая ночь

MVO

Одни из нас

1 сезон

Deluxe

pack

Рекомендуем

30

Пиратка

ВАЖНО

ВАЖНО

Ghostwire

Пиратка

jed

RePack

nioh2

RePack

RDR2

RePack

NEED FOR SPEED™ PAYBACK

RePack

скачать торрент

Кинопоиск HD

Острые козырьки 6 сезон

6 сезон

FAR CRY 6

RePack

скачать торрент

Лицензия

скачать торрент

MVO

1

1 сезон

скачать торрент

1 сезон

скачать торрент

Лицензия

  

Полюшко-поле (Вера Строева) [1956, СССР, драма, SATRip-AVC от AVP Studio]

Полюшко-поле через торрент pb.wtf

Размер: 1.09 GB | Добавлен: 6 лет назад | Торрент скачан:15 раз
Смотреть онлайн | Скачать | Поддержите нас   

15-01-2017 09:36 Полюшко-поле Скачать торрент  

Полюшко-поле
Страна: СССР
Производство: Мосфильм

Жанр: драма
Год выпуска: 1956
Продолжительность: 01:34:54

Перевод: Не требуется
Cубтитры: нет
Оригинальная аудиодорожка: русский

Режиссер: Вера Строева

В ролях:
Руфина Нифонтова, Вера Марецкая, Миша Меркулов, Всеволод Санаев, Лилия Гриценко, Александр Ануров, Татьяна Санько, Ёла Санько, Николай Михайлов, Сергей Ляхницкий, Елена Понсова, Елена Санько, Леонид Пархоменко, Светлана Харитонова, Александр Суснин, Валентина Шмелёва, Евгения Шмелёва, Ольга Шмелёва, Светлана Борусевич, Виталий Кравченко...
Об актёрах подробней

Описание:
Агроном Валя Чернышева полюбила нового главного агронома МТС Савицкого, вдовца с двумя маленькими дочерьми. Во время болезни одной из дочек, которую Валя выходила, он понял, что она стала для него близким человеком. Но девушка уехала на работу в другой дальний колхоз...

Источник: DVB
Качество видео: SATRip-AVC
Формат видео: MKV

Видео: 680->746x560 (4:3), 25 fps, H264 ~ 1448 kbps avg, 0.152 bit/pixel
Аудио: 48 kHz, Dolby Digital AC3 2.0, 192 kbps

Раздача от:
Общее
Полное имя : Polyushko,pole.1956.SATRip-AVC_[New-team]_by_AVP_Studio.mkv
Формат : Matroska
Версия формата : Version 2
Размер файла : 1,09 Гбайт
Продолжительность : 1 ч. 34 м.
Общий поток : 1642 Кбит/сек
Дата кодирования : UTC 2017-01-11 18:06:44
Программа кодирования : mkvmerge v6.1.0 ('Old Devil') built on Mar 4 2013 09:10:42
Библиотека кодирования : libebml v1.3.0 + libmatroska v1.4.0

Видео
Идентификатор : 1
Формат : AVC
Формат/Информация : Advanced Video Codec
Профиль формата : [email protected]
Параметр CABAC формата : Да
Параметр ReFrames формата : 10 кадров
Идентификатор кодека : V_MPEG4/ISO/AVC
Продолжительность : 1 ч. 34 м.
Битрейт : 1448 Кбит/сек
Ширина : 680 пикселей
Высота : 560 пикселей
Соотношение сторон : 4:3
Режим частоты кадров : Постоянный
Частота кадров : 25,000 кадров/сек
Цветовое пространство : YUV
Субдискретизация насыщенности : 4:2:0
Битовая глубина : 8 бит
Тип развёртки : Прогрессивная
Бит/(Пиксели*Кадры) : 0.152
Размер потока : 962 Мбайт (86%)
Библиотека кодирования : x264 core 148 r2597 e86f3a1
Настройки программы : cabac=1 / ref=10 / deblock=1:-2:-1 / analyse=0x3:0x113 / me=umh / subme=10 / psy=1 / psy_rd=1.00:0.00 / mixed_ref=1 / me_range=32 / chroma_me=1 / trellis=2 / 8x8dct=1 / cqm=0 / deadzone=21,11 / fast_pskip=1 / chroma_qp_offset=-2 / threads=6 / lookahead_threads=1 / sliced_threads=0 / nr=0 / decimate=0 / interlaced=0 / bluray_compat=0 / constrained_intra=0 / bframes=8 / b_pyramid=2 / b_adapt=2 / b_bias=0 / direct=3 / weightb=1 / open_gop=0 / weightp=2 / keyint=250 / keyint_min=25 / scenecut=40 / intra_refresh=0 / rc=2pass / mbtree=0 / bitrate=1448 / ratetol=1.0 / qcomp=0.60 / qpmin=0 / qpmax=69 / qpstep=4 / cplxblur=20.0 / qblur=0.5 / ip_ratio=1.40 / pb_ratio=1.30 / aq=1:1.00
Default : Да
Forced : Нет

Аудио
Идентификатор : 2
Формат : AC-3
Формат/Информация : Audio Coding 3
Расширение режима : CM (complete main)
Параметр Endianness формата : Big
Идентификатор кодека : A_AC3
Продолжительность : 1 ч. 34 м.
Вид битрейта : Постоянный
Битрейт : 192 Кбит/сек
Каналы : 2 канала
Расположение каналов : Front: L R
Частота : 48,0 КГц
Частота кадров : 31,250 кадров/сек (1536 spf)
Битовая глубина : 16 бит
Метод сжатия : С потерями
Размер потока : 130 Мбайт (12%)
Default : Да
Forced : Нет



Скачать Полюшко-поле через торрент http://s41.radikal.ru/i093/1701/e2/80cf27fcd3fa.png Скачать, смотреть онлайн Полюшко-поле бесплантно в хорошем качестве Описание:Агроном Валя Чернышева полюбила нового главного агронома МТС Савицкого, вдовца с двумя маленькими дочерьми. Во время болезни одной ... 10 10 2
Info! Золотая раздача, скачанное не засчитывается.
Торрент: Зарегистрирован [2017-01-15 09:36] · скачан: 15 раз
Статус: √ проверено
Размер: 1.09 GB
Как cкачать? Как скачать Полюшко-поле через торрент | UTorrent

% Раздел Тема Автор DL S | L
Кино СССР [ 746 MB ] Полюшко-поле | | SATRip от AVP Studio AVP Studio Скачать
1 | 0
Кино СССР [ 1.09 GB ] Полюшко-поле | | SATRip от AVP Studio AVP Studio Скачать
1 | 0

28-11-2019 20:33  


Отключить вcю реклaмy на сайте, в т.ч. и в плеере онлайн просмотра!

    Дорогой пользователь! Огромная просьба, поблагодарите релизера, оцените раздачу и оставьте свои комментарий, если Вы скачали Полюшко-поле через торрент бесплатно!!
    Комментировать посты могут только пользователи прошедшие не сложную регистрацию
    Показать сообщения:    


    Полюшко-поле через торрент
    Скачать бесплатно Полюшко-поле
    Полюшко-поле скачать торрент
    Полюшко-поле смотреть онлайн
    Cкачать фильм Полюшко-поле бесплатно
    Полюшко-поле скачать торрент в хорошем качестве
    Полюшко-поле смотреть онлайн бесплатно в хорошем качестве
    Вы не можете начинать темы
    Вы не можете отвечать на сообщения
    Вы не можете редактировать свои сообщения
    Вы не можете удалять свои сообщения
    Вы не можете голосовать в опросах
    Вы не можете прикреплять файлы к сообщениям
    Вы можете скачивать файлы
    Полюшко-поле [1956, СССР, драма, SATRip-AVC от AVP Studio] смотреть онлайн, скачать торрент picoco.icu