Ссылка на приватное зеркало нашего сайта всего за 1$. Внимание количество ограничено!!!

2 сезон

iTunes

1 сезон

1

2 сезон

2 сезон

iTunes

1 сезон

RePack

30

Ultimate

ВАЖНО

ИГРА 18+

pack

RePack

MK11
pack

Забери бонус

RePack

jed

!!Акция!!

Alien_Rage

RePack

fifa19

RePack

Assassins Creed: Odyssey

RePack

NEED FOR SPEED™ PAYBACK

4 сезон

9 сезон

Бесстыжие 9 сезон

Все сериалы

все сериалы на PB.wtf

RePack

FAR CRY 5
  

Лемони Сникет: 33 несчастья / A Series of Unfortunate Events/ Сезон: 1 / Серии 1-8 из 8 (Бэрри Зонненфельд, Марк Палански, Бо Уэлш) [2017, Драма, приключения, семейный, WEBRip] [MVO] (Jaskier) pb.wtf

Лемони Сникет: 33 несчастья через торрент pb.wtf

Размер: 5.13 GB | Добавлен: 3 года 10 мес. назад | Торрент скачан:57 раз
Скачать  

15-01-2017 12:04 Лемони Сникет: 33 несчастья Скачать торрент  



Лемони Сникет: 33 несчастья | A Series of Unfortunate Events

• Год выпуска: 2017
• Страна: США
• Жанр: Драма, приключения, семейный
• Продолжительность: ~ 00:43:00
• Перевод: Профессиональный (многоголосый закадровый) | Jaskier

• Режиссёр: Бэрри Зонненфельд, Марк Палански, Бо Уэлш

• В ролях: Нил Патрик Харрис, Усман Элли, Мэттью Кардаропле, Джон ДеСантис, Луи Хайнс, Малина Вайсман, Сара Каннинг, Патрик Китинг, Кэтрин О’Хара, Элфри Вудард и др.

• Описание: В центре внимания сериала - большая семья, которая пытается прийти в себя после страшного пожара, который разрушил их дом. Семейство Бодлер остается на улице. Дети Вайолет, Солнышко и Клаус потеряли своих родителей в этой бушующей стихии. Ребята отправляются к графу Олафу на попечение. Тот принимает детей, но при этом очень хочет захватить в свои владения все то, что ранее им принадлежало! Дети же всячески пытаются найти тех, кто их защитит, считая, что Олаф не просто их опекун, а настоящий тиран, который мечтает о смерти ребят. Конечно же, детей никто не слушает. Однако все же находятся те, кто готов помочь!


| |

• Качество: WEBRip
• Формат: AVI
• Видео: XviD, 704x352 (2.000), 24 fps, ~ 1450 kbps
• Аудио #1: MP3, 48 kHz, 2 ch, 128 kbps - Rus (песни оригинальные)
• Аудио #2: MP3, 48 kHz, 2 ch, 128 kbps - Rus (песни закадровым текстом)
• Аудио #3: MP3, 48 kHz, 2 ch, 128 kbps - Eng
• Субтитры: Русские (на песни)
Перевод и озвучка Jaskier
Общее
Полное имя                               : D:\загрузки\A Series of Unfortunate Events (Season 01) Jaskier\A.Series.of.Unfortunate.Events.S01E01.WEBRip.Rus.Eng.Jaskier.avi
Формат                                   : AVI
Формат/Информация                        : Audio Video Interleave
Размер файла                             : 645 Мбайт
Продолжительность                        : 48 м. 48 с.
Общий поток                              : 1848 Кбит/сек
Программа кодирования                    : VirtualDubMod 1.5.10.3 | www.virtualdub-fr.org || (build 2550/release)
Библиотека кодирования                   : VirtualDubMod build 2550/release
Видео
Идентификатор                            : 0
Формат                                   : MPEG-4 Visual
Профиль формата                          : Advanced Simple@L5
Параметр BVOP формата                    : 1
Параметр QPel формата                    : Нет
Параметр GMC формата                     : Без точки перехода
Параметр матрицы формата                 : Выборочная
Идентификатор кодека                     : XVID
Идентификатор кодека/Подсказка           : XviD
Продолжительность                        : 48 м. 48 с.
Битрейт                                  : 1445 Кбит/сек
Ширина                                   : 704 пикселя
Высота                                   : 352 пикселя
Соотношение сторон                       : 2,000
Частота кадров                           : 24,000 кадра/сек
Цветовое пространство                    : YUV
Субдискретизация насыщенности            : 4:2:0
Битовая глубина                          : 8 бит
Тип развёртки                            : Прогрессивная
Метод сжатия                             : С потерями
Бит/(Пиксели*Кадры)                      : 0.243
Размер потока                            : 505 Мбайт (78%)
Библиотека кодирования                   : XviD 73
Аудио #1
Идентификатор                            : 1
Формат                                   : MPEG Audio
Версия формата                           : Version 1
Профиль формата                          : Layer 3
Режим                                    : Joint stereo
Расширение режима                        : MS Stereo
Идентификатор кодека                     : 55
Идентификатор кодека/Подсказка           : MP3
Продолжительность                        : 48 м. 48 с.
Вид битрейта                             : Постоянный
Битрейт                                  : 128 Кбит/сек
Каналы                                   : 2 канала
Частота                                  : 48,0 КГц
Метод сжатия                             : С потерями
Размер потока                            : 44,7 Мбайт (7%)
Выравнивание                             : Соединение по промежуткам
Продолжительность промежутка             : 42  мс. (1,00 видеокадр)
Время предзагрузки промежутка            : 504  мс.
Аудио #2
Идентификатор                            : 2
Формат                                   : MPEG Audio
Версия формата                           : Version 1
Профиль формата                          : Layer 3
Режим                                    : Joint stereo
Расширение режима                        : MS Stereo
Идентификатор кодека                     : 55
Идентификатор кодека/Подсказка           : MP3
Продолжительность                        : 48 м. 48 с.
Вид битрейта                             : Постоянный
Битрейт                                  : 128 Кбит/сек
Каналы                                   : 2 канала
Частота                                  : 48,0 КГц
Метод сжатия                             : С потерями
Размер потока                            : 44,7 Мбайт (7%)
Выравнивание                             : Соединение по промежуткам
Продолжительность промежутка             : 42  мс. (1,00 видеокадр)
Время предзагрузки промежутка            : 504  мс.
Аудио #3
Идентификатор                            : 3
Формат                                   : MPEG Audio
Версия формата                           : Version 1
Профиль формата                          : Layer 3
Режим                                    : Joint stereo
Расширение режима                        : MS Stereo
Идентификатор кодека                     : 55
Идентификатор кодека/Подсказка           : MP3
Продолжительность                        : 48 м. 48 с.
Вид битрейта                             : Постоянный
Битрейт                                  : 128 Кбит/сек
Каналы                                   : 2 канала
Частота                                  : 48,0 КГц
Метод сжатия                             : С потерями
Размер потока                            : 44,7 Мбайт (7%)
Выравнивание                             : Соединение по промежуткам
Продолжительность промежутка             : 42  мс. (1,00 видеокадр)
Время предзагрузки промежутка            : 504  мс.
Когда раздача ведётся путём добавления новых серий, при каждом добавлении создётся новый торрент. Чтобы начать докачку новой серии, пользователям необходимо сделать следующее:
(1) остановить скачивание,
(2) удалить старый торрент у себя из клиента (старые серии удалять не надо),
(3) скачать новый торрент и запустить его у себя в клиенте вместо старого, при этом указать клиенту путь в старую папку, куда и должно происходить скачивание новых серий.
Ваш клиент при этом должен произвести хеширование (проверку) старой папки (если не производит сам - помогите ему сделать это), и будет докачивать только те серии, которых у вас ещё нет. Старые серии при этом не удаляются, а продолжают раздаваться!
Eсли вы уже удалили старые серии, то предотвратить повторную закачку старых серий можно, отжав галочку в соответсвующих местах при запуске нового торрента. По возможности, желательно не удалять старые серии как можно дольше, чтобы релизёр не столько продолжал раздавать старые серии, а смог сконцентрироваться на новых.
pb.wtf



Скачать Лемони Сникет: 33 несчастья через торрент http://i89.fastpic.ru/big/2017/0117/1f/0ee4f4cec4a2fc2178789780fd337d1f.jpg Скачать фильм Лемони Сникет: 33 несчастья через торрент бесплантно в хорошем качестве Описание: В центре внимания сериала - большая семья, которая пытается прийти в себя после страшного пожара, который разрушил их дом. ... 5.5 10 4
Торрент: Зарегистрирован [2017-01-20 17:44] · скачан: 57 раз
Статус: √ проверено
Размер: 5.13 GB
Как cкачать? Как скачать Лемони Сникет: 33 несчастья через торрент | qTorrent

% Раздел Тема Автор DL S | L
Зарубежные сериалы [ 36.1 GB ] Лемони Сникет: 33 несчастья / A Series of Unfortunate Events / Сезон: 1 / Серии 1-8 из 8 [2017 WEBRip 1080p] 3x[MVO] killermax2013 Скачать
1 | 0
Зарубежные сериалы [ 5.97 GB ] Лемони Сникет: 33 несчастья / A Series of Unfortunate Events / Сезон 1 / Серии 1-8 из 8 [2017 WEBRip] MVO [LostFilm] bober100 Скачать
1 | 0
Зарубежные сериалы [ 4.53 GB ] Лемони Сникет: 33 несчастья / A Series of Unfortunate Events / Сезон: 1 / Серии 1-8 из 8 [2017 WEBRip] [MVO] killermax2013 Скачать
1 | 0
Зарубежные сериалы [ 11.06 GB ] Лемони Сникет: 33 несчастья / A Series of Unfortunate Events / Сезон: 1 / Серии 1-8 из 8 [2017 WEBRip 720p] [MVO] killermax2013 Скачать
1 | 0
Зарубежные сериалы [ 8.7 GB ] Лемони Сникет: 33 несчастья / A Series of Unfortunate Events/ Сезон: 1 / Серии 1-7 из 8 [2017 WEBRip 720p] [Sub Rus] killermax2013 Скачать
1 | 0
Зарубежные сериалы [ 11.69 GB ] Лемони Сникет: 33 несчастья / A Series of Unfortunate Events/ Сезон: 1 / Серии 1-8 из 8 [2017 WEBRip 720p] [MVO] killermax2013 Скачать
1 | 0
Зарубежные сериалы [ 4.67 GB ] Лемони Сникет: 33 несчастья / A Series of Unfortunate Events/ Сезон: 1 / Серии 1-8 из 8 [2017 WEBRip] [MVO] killermax2013 Скачать
1 | 0


Последний раз редактировалось: killermax2013 (2017-01-20 17:44), всего редактировалось 2 раз(а)

28-11-2019 20:33  

Отключить всю рекламу на сайте

17-01-2017 23:15 Лемони Сникет: 33 несчастья Скачать торрент  

+2-3pb.wtf



20-01-2017 17:45 Лемони Сникет: 33 несчастья Скачать торрент  

Полный сезонpb.wtf



    Дорогой пользователь! Огромная просьба, поблагодарите релизера, оцените раздачу и оставьте свои комментарий, если Вы скачали Лемони Сникет: 33 несчастья через торрент бесплатно! Внесите свою лепту в развитие PiratBit!
    Комментировать посты могут только пользователи прошедшие не сложную регистрацию
    Показать сообщения:    

    Лемони Сникет: 33 несчастья через торрент
    Скачать бесплатно Лемони Сникет: 33 несчастья
    Лемони Сникет: 33 несчастья скачать торрент
    Лемони Сникет: 33 несчастья смотреть онлайн
    Cкачать фильм Лемони Сникет: 33 несчастья бесплатно
    Лемони Сникет: 33 несчастья скачать торрент в хорошем качестве
    Лемони Сникет: 33 несчастья смотреть онлайн бесплатно в хорошем качестве


    Вы не можете начинать темы
    Вы не можете отвечать на сообщения
    Вы не можете редактировать свои сообщения
    Вы не можете удалять свои сообщения
    Вы не можете голосовать в опросах
    Вы не можете прикреплять файлы к сообщениям
    Вы можете скачивать файлы