Ссылка на приватное зеркало нашего сайта всего за 1$. Внимание количество ограничено!!!

2 сезон

iTunes

1 сезон

1

2 сезон

2 сезон

iTunes

1 сезон

RePack

30

Ultimate

ВАЖНО

ИГРА 18+

pack

RePack

MK11
pack

Забери бонус

RePack

jed

!!Акция!!

Alien_Rage

RePack

fifa19

RePack

Assassins Creed: Odyssey

RePack

NEED FOR SPEED™ PAYBACK

4 сезон

9 сезон

Бесстыжие 9 сезон

Все сериалы

все сериалы на PB.wtf

RePack

FAR CRY 5
  

Колония / Colony / Сезон: 2 / Серии 1-10 из 13 (Питер Лето) [2017 г., Фантастика, WEB-DLRip 1080p] MVO LostFilm pb.wtf

Колония через торрент pb.wtf

Качают: 2 [ 0 KB/s ]
Размер: 17.86 GB | Добавлен: 3 года 8 мес. назад | Торрент скачан:2 раза
Скачать  

15-01-2017 14:16 Колония Скачать торрент  

Колония / Colony«The invasion is over. The fight is about to begin» ---
---
---
---
---
Год выпуска: 2017
Страна: США
Жанр: Фантастика
Продолжительность: ~ 00:42:00 x 10
Перевод: Профессиональный многоголосый LostFilm
Реклама: В релизе отсутствуют рекламные аудио и видео вставки
Сезон: 2
Серии: 1-10 из 13
Режиссер: Питер Лето
Сценарий: Райан Кондал, Карлтон Кьюз
Продюссер: Кори Бёрд, Хуан Хосе Кампанелла, Райан Кондал
Оператор: Джеф Джёр, Чекко Варезе
Композитор: Клинтон Шотер
Художник: СиСи ДеСтефано, Сузуки Ингерслев, Слоун У’Рен
Монтаж: Рик Шэйн
Премьера в мире: 23 ноября 2015

В ролях:

В ролях: Джош Холлоуэй, Сара Уэйн Кэллис, Питер Джекобсон, Аманда Ригетти, Алекс Нюстадтер, Изабелла Крамп, Гонсало Менендес, Элли Уокер, Либэ Барер, Д.Дж. Бликенстафф

Описание: «Колония» — научно-фантастический сериал, идея создания которого принадлежит талантливому молодому сценаристу Райану Кондалу («Геракл») и знаменитому телевизионному шоураннеру Карлтону Кьюзу, подарившему миру культовые драмы «Остаться в живых» (Lost), «Мотель Бейтса» (Bates Motel) и «Штамм» (The Strain).. Амбициозный проект канала USA Network может похвастать интригующим сюжетом, звездным актерским составом, оскароносным режиссером, изобретательным экшеном и качественными спецэффектами, благодаря чему он придется по вкусу всем любителям постапокалиптики, антиутопий и историй о вторжении пришельцев..
Сюжет: Действие сериала разворачивается в недалеком будущем в оккупированном инопланетными захватчиками Лос-Анджелесе.. Крупнейшие города Калифорнии были разделены огромной стеной и начали именоваться Блоками.. За порядком на улицах следят автоматизированные дроны и вооруженные патрули, готовые безжалостно покарать каждого, кто решит выступить против нового правительства.. Бывший агент ФБР Уилл Боуман ищет пути выбраться из своего Блока, чтобы попытаться найти младшего сына, оказавшегося по другую сторону стены.. Воспользоваться бедой Уилла готов коварный правитель Лос-Анджелеса Алан Снайдер, обещающий помочь найти ребенка, если Боуман начнет сотрудничество с оккупантами в борьбе против движения сопротивления.. Чтобы обезопасить жену и детей главному герою приходится принять предложение, от которого невозможно отказаться.. Станет ли Уилл предателем или решит вести против захватчиков двойную игру?..
Качество: WEB-DLRip 1080p
Формат: MKV
Видео кодек: AVC
Аудио кодек: AC3
Видео: 1920x1080 (16:9), ~ 5250 kbps, 23,976 fps
Аудио#1: русский / 2 ch / 48 kHz / 384 kbps
Аудио#2: английский / 2 ch / 48 kHz / 384 kbps

Внимание! Раздача ведётся путём добавления новых серий; при каждом добавлении создаётся новый торрент. Чтобы начать докачку новой серии, пользователям необходимо сделать следующее:
1. остановить скачивание,
2. удалить старый торрент у себя из клиента (старые серии удалять не надо),
3. скачать новый торрент и запустить его у себя в клиенте вместо старого, при этом указать клиенту путь в старую папку куда и должно происходить скачивание новых серий.

Ваш клиент при этом должен произвести хеширование (проверку) старой папки (если не производит сам - помогите ему сделать это), и будет докачивать только те серии которых у вас ещё нет. Старые серии при этом не удаляются, а продолжают раздаваться!
Eсли вы уже удалили старые серии, то предотвратить повторную закачку старых серий можно, отжав галочку в соответствующих местах при запуске нового торрента. По возможности, желательно не удалять старые серии как можно дольше чтобы релизёр не столько продолжал раздавать старые серии, а смог сконцентрироваться на новых.
скриншот   скриншот   скриншот   скриншот   скриншот  

General
Unique ID : 171031992701233266798333944376296815691 (0x80AB90495843178FBFD958EE00E13C4B)
Complete name : D:\Colony.S02.HD1080p.WEB-DL\Colony.S02E01.1080p.rus.LostFilm.TV.mkv
Format : Matroska
Format version : Version 4 / Version 2
File size : 1.81 GiB
Duration : 43mn 9s
Overall bit rate : 6 009 Kbps
Encoded date : UTC 2017-01-14 19:19:56
Writing application : mkvmerge v7.7.0 ('Six Voices') 64bit built on Feb 28 2015 23:39:33
Writing library : libebml v1.3.1 + libmatroska v1.4.2
DURATION : 00:43:09.312000000
NUMBER_OF_FRAMES : 80916
NUMBER_OF_BYTES : 124286976
_STATISTICS_WRITING_APP : mkvmerge v7.7.0 ('Six Voices') 64bit built on Feb 28 2015 23:39:33
_STATISTICS_WRITING_DATE_UTC : 2017-01-14 19:19:56
_STATISTICS_TAGS : BPS DURATION NUMBER_OF_FRAMES NUMBER_OF_BYTES

Video #1
ID : 1
Format : AVC
Format/Info : Advanced Video Codec
Format profile : High@L4.1
Format settings, CABAC : Yes
Format settings, ReFrames : 4 frames
Codec ID : V_MPEG4/ISO/AVC
Duration : 43mn 9s
Bit rate : 5 242 Kbps
Width : 1 920 pixels
Height : 1 080 pixels
Display aspect ratio : 16:9
Frame rate mode : Constant
Frame rate : 23.976 fps
Color space : YUV
Chroma subsampling : 4:2:0
Bit depth : 8 bits
Scan type : Progressive
Bits/(Pixel*Frame) : 0.105
Stream size : 1.54 GiB (85%)
Writing library : x264 core 112 r1834 a51816a
Encoding settings : cabac=1 / ref=4 / deblock=1:-3:-2 / analyse=0x3:0x113 / me=hex / subme=7 / psy=1 / psy_rd=1.00:0.00 / mixed_ref=1 / me_range=16 / chroma_me=1 / trellis=1 / 8x8dct=1 / cqm=0 / deadzone=21,11 / fast_pskip=1 / chroma_qp_offset=-2 / threads=6 / sliced_threads=0 / nr=0 / decimate=1 / interlaced=0 / constrained_intra=0 / bframes=5 / b_pyramid=2 / b_adapt=1 / b_bias=0 / direct=1 / weightb=1 / open_gop=0 / weightp=2 / keyint=250 / keyint_min=25 / scenecut=40 / intra_refresh=0 / rc_lookahead=40 / rc=2pass / mbtree=1 / bitrate=5242 / ratetol=1.0 / qcomp=0.60 / qpmin=0 / qpmax=51 / qpstep=4 / cplxblur=20.0 / qblur=0.5 / vbv_maxrate=10000 / vbv_bufsize=256000 / ip_ratio=1.40 / aq=1:1.00 / nal_hrd=none
Default : Yes
Forced : No

Audio #2
ID : 2
Format : AC-3
Format/Info : Audio Coding 3
Mode extension : CM (complete main)
Format settings, Endianness : Big
Codec ID : A_AC3
Duration : 43mn 9s
Bit rate mode : Constant
Bit rate : 384 Kbps
Channel(s) : 2 channels
Channel positions : Front: L R
Sampling rate : 48.0 KHz
Compression mode : Lossy
Stream size : 119 MiB (6%)
Default : Yes
Forced : No

Audio #3
ID : 3
Format : AC-3
Format/Info : Audio Coding 3
Mode extension : CM (complete main)
Format settings, Endianness : Big
Codec ID : A_AC3
Duration : 43mn 9s
Bit rate mode : Constant
Bit rate : 384 Kbps
Channel(s) : 2 channels
Channel positions : Front: L R
Sampling rate : 48.0 KHz
Compression mode : Lossy
Stream size : 119 MiB (6%)
Default : No
Forced : No
_Добавлена 10 серия.. (19.03.2017) Просьба перекачать торрент файл.._

pb.wtf



Скачать Колония через торрент http://pic.kartinco.top/images/11/yawuo.jpg Скачать фильм Колония через торрент бесплантно в хорошем качестве Описание: «Колония» — научно-фантастический сериал, идея создания которого принадлежит талантливому молодому сценаристу Райану Кондалу ... 10 10 6
Info! Золотая раздача, скачанное не засчитывается.
Торрент: Зарегистрирован [2017-03-19 05:54] · скачан: 2 раз
Статус: √ проверено
Размер: 17.86 GB
Как cкачать? Как скачать Колония через торрент | qTorrent



Последний раз редактировалось: MicroCharmelle (2017-03-19 05:55), всего редактировалось 3 раз(а)

28-11-2019 20:33  

Отключить всю рекламу на сайте

15-01-2017 17:20 Колония Скачать торрент  

Как фильм?????pb.wtf



15-01-2017 17:30 Колония Скачать торрент  

Посмотрим что это! Я как то пропустил первый сезон, поэтому тащу сразу два сезона. Посмотрим, стоит ли оно того ))))pb.wtf



15-01-2017 18:45 Колония Скачать торрент  

Вот что скажу, снят сериал добротно!
Актеры не плохие да и сюжет тоже вообщем для любителей сериалов рекомендую ознакомится.pb.wtf



    Дорогой пользователь! Огромная просьба, поблагодарите релизера, оцените раздачу и оставьте свои комментарий, если Вы скачали Колония через торрент бесплатно! Внесите свою лепту в развитие PiratBit!
    Комментировать посты могут только пользователи прошедшие не сложную регистрацию
    Показать сообщения:    

    Колония через торрент
    Скачать бесплатно Колония
    Колония скачать торрент
    Колония смотреть онлайн
    Cкачать фильм Колония бесплатно
    Колония скачать торрент в хорошем качестве
    Колония смотреть онлайн бесплатно в хорошем качестве


    Вы не можете начинать темы
    Вы не можете отвечать на сообщения
    Вы не можете редактировать свои сообщения
    Вы не можете удалять свои сообщения
    Вы не можете голосовать в опросах
    Вы не можете прикреплять файлы к сообщениям
    Вы можете скачивать файлы