Ссылка на приватное зеркало нашего сайта всего за 1$. Внимание количество ограничено!!!

2 сезон

iTunes

1 сезон

1

iTunes

iTunes

iTunes

1 сезон

RePack

30

ИГРА 18+

pack

ВАЖНО

!!Акция!!

Alien_RageХит недели

RePack

MK11
pack

Забери бонус

RePack

jed

!!Акция!!

Alien_Rage

RePack

fifa19

RePack

Assassins Creed: Odyssey

RePack

NEED FOR SPEED™ PAYBACK

4 сезон

9 сезон

Бесстыжие 9 сезон

Все сериалы

все сериалы на PB.wtf

RePack

FAR CRY 5
  

Семь самураев / Shichinin no samurai (Акира Куросава ) (Criterion Collection) [1954, драма, приключения, BDRip 720p от _denis_100 / NNNB] 2xDVO + AVO + Original pb.wtf

Семь самураев через торрент pb.wtf

Размер: 14.15 GB | Добавлен: 3 года 9 мес. назад | Торрент скачан:150 раз
Скачать  

15-01-2017 16:37 Семь самураев Скачать торрент  

Семь самураев / Shichinin no samurai
«The Mighty Warriors Who Became the Seven National Heroes of a Small Town»


Год выпуска: 1954
Страна: Япония
Жанр: драма, приключения
Продолжительность: 03:27:04
Перевод: Профессиональный [двухголосый], Авторский [одноголосый]
Субтитры: русские
Режиссер: Акира Куросава
В ролях: Тосиро Мифунэ , Такаси Симура , Кэйко Цусима , Юкико Симадзаки , Каматари Фудзивара , Дайсукэ Като , Исао Кимура , Минору Тиаки , Сэйдзи Миягути , Ёсио Косуги , Бокудзэн Хидари , Ёсио Инаба
Описание:
Япония. 16 век. В стране полыхает гражданская война, повсюду орудуют банды разбойников и мародеров. Бедные крестьяне нанимают для своей защиты семерых самураев, которые немного сплачивают раздробленных и малодушных жителей деревни в этой борьбе...

Качество: BDRip 720p
Контейнер (Расширение): MKV
Видео: 958x720, 8318 Кбит/сек, 23,976 кадр/сек
Аудио №1: русский / AC3 / 1.0 / 48 kHz / 192 kbps / |Профессиональный двухголосый, Светла|
Аудио №2: русский / AC3 / 1.0 / 48 kHz / 192 kbps / |Профессиональный двухголосый|
Аудио №3: русский / DTS-HD / 2.0 / 48 kHz / 887 kbps / 16-bit (DTS Core: 2.0 / 48 kHz / 768 kbps / 16-bit) | Авторский одноголосый, Живов|
Аудио №4: японский / AC3 / 2.0 / 48 kHz / 192 kbps /
Навигация по главам(Чаптеры): естьАвтор рипа: Группа:
Format : Matroska
Format version : Version 2
File size : 14.1 GiB
Duration : 3 h 27 min
Overall bit rate : 9 780 kb/s
Movie name : Shichinin no samurai.(1954).BDRip.720p.[denis100]
Encoded date : UTC 2017-01-15 15:41:38
Writing application : mkvmerge v5.8.0 ('No Sleep / Pillow') built on Sep 2 2012 15:37:04
Writing library : libebml v1.2.3 + libmatroska v1.3.0

Video
ID : 1
Format : AVC
Format/Info : Advanced Video Codec
Format profile : High@L4.1
Format settings, CABAC : Yes
Format settings, ReFrames : 9 frames
Muxing mode : Header stripping
Codec ID : V_MPEG4/ISO/AVC
Duration : 3 h 27 min
Width : 958 pixels
Height : 720 pixels
Display aspect ratio : 4:3
Frame rate mode : Constant
Frame rate : 23.976 (24000/1001) FPS
Color space : YUV
Chroma subsampling : 4:2:0
Bit depth : 8 bits
Scan type : Progressive
Title : Shichinin no samurai.(1954).BDRip.720p.[denis100]
Writing library : x264 core 148 r2744 b97ae06
Encoding settings : cabac=1 / ref=9 / deblock=1:-3:-3 / analyse=0x3:0x133 / me=umh / subme=11 / psy=1 / psy_rd=1.00:0.09 / mixed_ref=1 / me_range=32 / chroma_me=1 / trellis=2 / 8x8dct=1 / cqm=0 / deadzone=21,11 / fast_pskip=0 / chroma_qp_offset=-3 / threads=6 / lookahead_threads=1 / sliced_threads=0 / nr=0 / decimate=1 / interlaced=0 / bluray_compat=0 / constrained_intra=0 / bframes=11 / b_pyramid=2 / b_adapt=2 / b_bias=0 / direct=3 / weightb=1 / open_gop=0 / weightp=2 / keyint=240 / keyint_min=23 / scenecut=40 / intra_refresh=0 / rc=crf / mbtree=0 / crf=17.5 / qcomp=0.60 / qpmin=0 / qpmax=69 / qpstep=4 / ip_ratio=1.40 / pb_ratio=1.30 / aq=1:0.85
Language : English
Default : Yes
Forced : No

Audio #1
ID : 2
Format : AC-3
Format/Info : Audio Coding 3
Mode extension : CM (complete main)
Format settings, Endianness : Big
Muxing mode : Header stripping
Codec ID : A_AC3
Duration : 3 h 27 min
Bit rate mode : Constant
Bit rate : 192 kb/s
Channel(s) : 1 channel
Channel positions : Front: C
Sampling rate : 48.0 kHz
Frame rate : 31.250 FPS (1536 spf)
Compression mode : Lossy
Stream size : 284 MiB (2%)
Title : DVO, Светла
Language : Russian
Default : Yes
Forced : No

Audio #2
ID : 3
Format : AC-3
Format/Info : Audio Coding 3
Mode extension : CM (complete main)
Format settings, Endianness : Big
Muxing mode : Header stripping
Codec ID : A_AC3
Duration : 3 h 27 min
Bit rate mode : Constant
Bit rate : 192 kb/s
Channel(s) : 1 channel
Channel positions : Front: C
Sampling rate : 48.0 kHz
Frame rate : 31.250 FPS (1536 spf)
Compression mode : Lossy
Stream size : 284 MiB (2%)
Title : DVO
Language : Russian
Default : No
Forced : No

Audio #3
ID : 4
Format : DTS
Format/Info : Digital Theater Systems
Format profile : MA / Core
Mode : 16
Format settings, Endianness : Big
Muxing mode : Header stripping
Codec ID : A_DTS
Duration : 3 h 27 min
Bit rate mode : Variable / Constant
Bit rate : Unknown / 768 kb/s
Channel(s) : 2 channels
Channel positions : Front: L R
Sampling rate : 48.0 kHz
Frame rate : 93.750 FPS (512 spf)
Bit depth : 16 bits
Compression mode : Lossless / Lossy
Title : AVO, Живов
Language : Russian
Default : No
Forced : No

Audio #4
ID : 5
Format : AC-3
Format/Info : Audio Coding 3
Mode extension : CM (complete main)
Format settings, Endianness : Big
Muxing mode : Header stripping
Codec ID : A_AC3
Duration : 3 h 27 min
Bit rate mode : Constant
Bit rate : 192 kb/s
Channel(s) : 2 channels
Channel positions : Front: L R
Sampling rate : 48.0 kHz
Frame rate : 31.250 FPS (1536 spf)
Compression mode : Lossy
Stream size : 284 MiB (2%)
Language : Japanese
Default : No
Forced : No

Text
ID : 6
Format : UTF-8
Codec ID : S_TEXT/UTF8
Codec ID/Info : UTF-8 Plain Text
Language : Russian
Default : No
Forced : No

Menu
00:00:00.000 : en:00:00:00.000
00:03:09.189 : en:00:03:09.189
00:10:27.794 : en:00:10:27.794
00:17:10.863 : en:00:17:10.863
00:25:01.125 : en:00:25:01.125
00:33:01.271 : en:00:33:01.271
00:40:35.266 : en:00:40:35.266
00:49:54.575 : en:00:49:54.575
01:01:15.505 : en:01:01:15.505
01:09:50.436 : en:01:09:50.436
01:14:19.747 : en:01:14:19.747
01:22:44.501 : en:01:22:44.501
01:26:37.484 : en:01:26:37.484
01:34:21.865 : en:01:34:21.865
01:40:31.442 : en:01:40:31.442
01:46:45.691 : en:01:46:45.691
01:51:59.755 : en:01:51:59.755
01:55:30.257 : en:01:55:30.257
01:59:05.430 : en:01:59:05.430
02:04:57.198 : en:02:04:57.198
02:12:14.385 : en:02:12:14.385
02:20:08.650 : en:02:20:08.650
02:22:25.871 : en:02:22:25.871
02:33:33.579 : en:02:33:33.579
02:41:11.537 : en:02:41:11.537
02:48:59.254 : en:02:48:59.254
03:00:28.067 : en:03:00:28.067
03:13:41.944 : en:03:13:41.944
03:22:42.025 : en:03:22:42.025
pb.wtf



Скачать Семь самураев через торрент http://i3.imageban.ru/out/2017/01/15/31be4e5cefb7b9827e544e20a6bce1d4.png Скачать фильм Семь самураев через торрент бесплантно в хорошем качестве Описание:Япония. 16 век. В стране полыхает гражданская война, повсюду орудуют банды разбойников и мародеров. Бедные крестьяне нанимают для ... 10 10 10
Info! Золотая раздача, скачанное не засчитывается.
Торрент: Зарегистрирован [2017-01-15 16:37] · скачан: 150 раз
Статус: √ проверено
Размер: 14.15 GB
Как cкачать? Как скачать Семь самураев через торрент | qTorrent

28-11-2019 20:33  

Отключить всю рекламу на сайте

    Дорогой пользователь! Огромная просьба, поблагодарите релизера, оцените раздачу и оставьте свои комментарий, если Вы скачали Семь самураев через торрент бесплатно! Внесите свою лепту в развитие PiratBit!
    Комментировать посты могут только пользователи прошедшие не сложную регистрацию
    Показать сообщения:    

    Семь самураев через торрент
    Скачать бесплатно Семь самураев
    Семь самураев скачать торрент
    Семь самураев смотреть онлайн
    Cкачать фильм Семь самураев бесплатно
    Семь самураев скачать торрент в хорошем качестве
    Семь самураев смотреть онлайн бесплатно в хорошем качестве


    Вы не можете начинать темы
    Вы не можете отвечать на сообщения
    Вы не можете редактировать свои сообщения
    Вы не можете удалять свои сообщения
    Вы не можете голосовать в опросах
    Вы не можете прикреплять файлы к сообщениям
    Вы можете скачивать файлы