Ссылка на приватное зеркало нашего сайта всего за 1$. Внимание количество ограничено!!!

2 сезон

iTunes

1 сезон

1

iTunes

iTunes

iTunes

1 сезон

RePack

30

ИГРА 18+

pack

ВАЖНО

!!Акция!!

Alien_RageХит недели

RePack

MK11
pack

Забери бонус

RePack

jed

!!Акция!!

Alien_Rage

RePack

fifa19

RePack

Assassins Creed: Odyssey

RePack

NEED FOR SPEED™ PAYBACK

4 сезон

9 сезон

Бесстыжие 9 сезон

Все сериалы

все сериалы на PB.wtf

RePack

FAR CRY 5
  

За холмами / Dupa dealuri (Кристиан Мунджиу) [2012, драма, BDRip 1080p by msltel] MVO pb.wtf

За холмами через торрент pb.wtf

Размер: 16.18 GB | Добавлен: 3 года 9 мес. назад | Торрент скачан:9 раз
Скачать  

16-01-2017 11:04 За холмами Скачать торрент  

Название: За холмами
Оригинальное название: Dupa dealuri
Год выпуска: 2012
Страна: Румыния, Франция, Бельгия
Жанр: драма
Продолжительность: 02:31:58
Перевод: профессиональный многоголосый

Режиссёр: Кристиан Мунджиу

В ролях: Космина Стратан, Кристина Флутур, Валериу Андрьюта, Дэна Тапалага, Каталина Харабажиу, Джина Тандура, Вика Агаш, Нора Ковали, Диониси Витчу, Ионут Гинея

Описание: Алина возвращается в Румынию из Германии, чтобы забрать с собой Войчиту, единственного близкого ей человека, когда-либо отвечавшего ей взаимностью. Но Войчита обратилась к Богу, а Бог — серьезный соперник, когда дело касается чувств... Киноверсия документальных материалов Татьяны Никулеску Брэн.



Качество: BDRip 1080p
Формат: MKV
Видео: MPEG-4 AVC, 14 Mбит/с, 1920x804, 23,976 кадра/с
Аудио 1: русский, AC3, 448 kbps, 6 ch, 48 kHz [профессиональный многоголосый, R5]
Аудио 2: румынский, DTS, 768 kbps, 6 ch, 48 kHz [оригинал]
Субтитры 1: русские
Субтитры 2: английские
Имеются неименованные главы/чаптеры.
Общее
Уникальный идентификатор : 198361631800690536521762782544870962442 (0x953B0F86C6495500A57F87475F6AF50A)
Полное имя : D:\Video\За холмами.2012.BDRip.1080p by msltel.mkv
Формат : Matroska
Версия формата : Version 4 / Version 2
Размер файла : 16,2 Гбайт
Продолжительность : 2 ч. 31 м.
Общий поток : 15,2 Мбит/сек
Название фильма : Rip by msltel
Дата кодирования : UTC 2017-01-16 09:12:15
Программа кодирования : mkvmerge v8.2.0 ('World of Adventure') 64bit
Библиотека кодирования : libebml v1.3.1 + libmatroska v1.4.2

Видео
Идентификатор : 1
Формат : AVC
Формат/Информация : Advanced Video Codec
Профиль формата : High@L4.1
Параметр CABAC формата : Да
Параметр ReFrames формата : 4 кадра
Идентификатор кодека : V_MPEG4/ISO/AVC
Продолжительность : 2 ч. 31 м.
Битрейт : 14,0 Мбит/сек
Ширина : 1920 пикселей
Высота : 804 пикселя
Соотношение сторон : 2,40:1
Режим частоты кадров : Постоянный
Частота кадров : 23,976 (24000/1001) кадра/сек
Цветовое пространство : YUV
Субдискретизация насыщенности : 4:2:0
Битовая глубина : 8 бит
Тип развёртки : Прогрессивная
Бит/(Пиксели*Кадры) : 0.379
Размер потока : 14,9 Гбайт (92%)
Библиотека кодирования : x264 core 146 r2538 121396c
Настройки программы : cabac=1 / ref=4 / deblock=1:-3:-2 / analyse=0x3:0x113 / me=umh / subme=11 / psy=1 / psy_rd=1.00:0.15 / mixed_ref=1 / me_range=32 / chroma_me=1 / trellis=2 / 8x8dct=1 / cqm=0 / deadzone=21,11 / fast_pskip=0 / chroma_qp_offset=-3 / threads=6 / lookahead_threads=1 / sliced_threads=0 / nr=0 / decimate=1 / interlaced=0 / bluray_compat=0 / constrained_intra=0 / bframes=9 / b_pyramid=2 / b_adapt=2 / b_bias=0 / direct=1 / weightb=1 / open_gop=0 / weightp=2 / keyint=230 / keyint_min=23 / scenecut=40 / intra_refresh=0 / rc_lookahead=40 / rc=crf / mbtree=0 / crf=17.9 / qcomp=0.60 / qpmin=0 / qpmax=69 / qpstep=4 / vbv_maxrate=62500 / vbv_bufsize=78125 / crf_max=0.0 / nal_hrd=none / filler=0 / ip_ratio=1.40 / pb_ratio=1.30 / aq=1:1.00
Язык : Romanian
Default : Да
Forced : Нет

Аудио #1
Идентификатор : 2
Формат : AC-3
Формат/Информация : Audio Coding 3
Расширение режима : CM (complete main)
Параметр Endianness формата : Big
Идентификатор кодека : A_AC3
Продолжительность : 2 ч. 31 м.
Вид битрейта : Постоянный
Битрейт : 448 Кбит/сек
Каналы : 6 каналов
Расположение каналов : Front: L C R, Side: L R, LFE
Частота : 48,0 КГц
Частота кадров : 31,250 кадров/сек (1536 spf)
Метод сжатия : С потерями
Размер потока : 487 Мбайт (3%)
Заголовок : MVO (R5)
Язык : Russian
Default : Да
Forced : Нет

Аудио #2
Идентификатор : 3
Формат : DTS
Формат/Информация : Digital Theater Systems
Режим : 16
Параметр Endianness формата : Big
Идентификатор кодека : A_DTS
Продолжительность : 2 ч. 31 м.
Вид битрейта : Постоянный
Битрейт : 768 Кбит/сек
Каналы : 6 каналов
Расположение каналов : Front: L C R, Side: L R, LFE
Частота : 48,0 КГц
Частота кадров : 93,750 кадра/сек (512 spf)
Битовая глубина : 24 бит
Метод сжатия : С потерями
Размер потока : 835 Мбайт (5%)
Заголовок : original
Язык : Romanian
Default : Нет
Forced : Нет

Текст #1
Идентификатор : 4
Формат : UTF-8
Идентификатор кодека : S_TEXT/UTF8
Идентификатор кодека/Информация : UTF-8 Plain Text
Продолжительность : 2 ч. 28 м.
Битрейт : 85 бит/сек
Count of elements : 1939
Размер потока : 93,2 Кбайт (0%)
Заголовок : русские
Язык : Russian
Default : Нет
Forced : Нет

Текст #2
Идентификатор : 5
Формат : UTF-8
Идентификатор кодека : S_TEXT/UTF8
Идентификатор кодека/Информация : UTF-8 Plain Text
Продолжительность : 2 ч. 28 м.
Битрейт : 52 бит/сек
Count of elements : 1945
Размер потока : 57,2 Кбайт (0%)
Заголовок : английские
Язык : English
Default : Нет
Forced : Нет

Меню
00:00:00.000 : en:00:00:00.000
00:12:52.313 : en:00:12:52.313
00:27:35.737 : en:00:27:35.737
00:37:38.548 : en:00:37:38.548
00:48:53.305 : en:00:48:53.305
01:04:07.969 : en:01:04:07.969
01:13:01.085 : en:01:13:01.085
01:24:41.159 : en:01:24:41.159
01:33:27.977 : en:01:33:27.977
01:48:12.027 : en:01:48:12.027
02:00:42.861 : en:02:00:42.861
02:15:41.675 : en:02:15:41.675
pb.wtf



Скачать За холмами через торрент http://s018.radikal.ru/i505/1701/0a/3ca8772a4c55.jpg Скачать фильм За холмами через торрент бесплантно в хорошем качестве Описание: Алина возвращается в Румынию из Германии, чтобы забрать с собой Войчиту, единственного близкого ей человека, когда-либо ... 6.3 10 4
Info! Золотая раздача, скачанное не засчитывается.
Торрент: Зарегистрирован [2017-01-16 11:04] · скачан: 9 раз
Статус: √ проверено
Размер: 16.18 GB
Как cкачать? Как скачать За холмами через торрент | qTorrent

% Раздел Тема Автор DL S | L
Фильмы [HD 720p, 1080p] (Хороший звук DUB, MVO) [ 5.95 GB ] За холмами / Dupa dealuri [2012 BDRip 720p by msltel] MVO msltel Скачать
1 | 0

28-11-2019 20:33  

Отключить всю рекламу на сайте

16-01-2017 19:01 За холмами Скачать торрент  

В шапке: "За холмами через торрент" pb.wtf



    Дорогой пользователь! Огромная просьба, поблагодарите релизера, оцените раздачу и оставьте свои комментарий, если Вы скачали За холмами через торрент бесплатно! Внесите свою лепту в развитие PiratBit!
    Комментировать посты могут только пользователи прошедшие не сложную регистрацию
    Показать сообщения:    

    За холмами через торрент
    Скачать бесплатно За холмами
    За холмами скачать торрент
    За холмами смотреть онлайн
    Cкачать фильм За холмами бесплатно
    За холмами скачать торрент в хорошем качестве
    За холмами смотреть онлайн бесплатно в хорошем качестве


    Вы не можете начинать темы
    Вы не можете отвечать на сообщения
    Вы не можете редактировать свои сообщения
    Вы не можете удалять свои сообщения
    Вы не можете голосовать в опросах
    Вы не можете прикреплять файлы к сообщениям
    Вы можете скачивать файлы