новый адрес
Ссылка на приватное зеркало всего за 1$. Внимание количество ограничено!!!

iTunes

1+1

iTunes

мы

iTunes

1

iTunes

Чернобыль

iTunes

Ральф против интернета

Лицензия

ПШазам

Лицензия

Оно 2

Лицензия

30
pack

Вам бонус

ВАЖНО

!!Акция!!

Alien_RageХит недели

RePack

Resident Evil 21

ИГРА 18+

pack

RePack

jed

!!Акция!!

Alien_Rage

RePack

fifa19

RePack

Assassins Creed: Odyssey

RePack

NEED FOR SPEED™ PAYBACK

3 сезон

9 сезон

Бесстыжие 9 сезон

Все сериалы

все сериалы на PB.wtf

RePack

FAR CRY 5
Ребята, катастрофически не хватает 1900р. для оплаты серверов за Октябрь (всвязи с блокировками трафик упал в 3 раза), 1-2р., выручайте.
  

Посеяли девушки лен (Владимир Корш-Саблин) [1956, СССР, драма, мелодрама, DVDRip от AVP Studio] pb.wtf

Посеяли девушки лен через торрент pb.wtf

Размер: 745 MB | Добавлен: 2 года 10 мес. назад | Торрент скачан:8 раз
Скачать  

16-01-2017 12:33 Посеяли девушки лен Скачать торрент  

Посеяли девушки лен
Страна: СССР
Производство: Беларусьфильм

Жанр: драма, мелодрама
Год выпуска: 1956
Продолжительность: 01:25:53

Перевод: Не требуется
Cубтитры: нет
Оригинальная аудиодорожка: русский

Режиссер: Владимир Корш-Саблин

В ролях:
Зоя Степанова, Елена Тяпкина, Лев Фричинский, Борис Кордунов, Лариса Кронберг, Тамара Трушина, Глеб Глебов, Людмила Семёнова, Нина Алисова, Александр Ильинский, Павел Пекур, А. Лихачев, Георгий Гумилевский, Валентина Кравченко...
Об актёрах подробней

Описание:
Сюжет из колхозной жизни. Звеньевая белорусского колхоза Найдейка Красович, воодушевленная наградой на Всесоюзной сельскохозяйственной выставке за высокий урожай льна, дает слово вдвое увеличить урожай. Многие односельчане сомневаются в ее успехе, и лишь Григорий Павлович, новый директор МТС, оставивший в городе семью и приехавший в село по зову партии, оказывает Надейке всяческую поддержку и чрезмерное внимание, потому что любит и, кажется, любим. Параллельно этой истории развивается сюжет о любви трактористки Зоси к леснику Янке, который безответно страдает по Надейке.

Источник: DVD5 R5
Качество видео: DVDRip
Формат видео: AVI

Видео: 640x480 (4:3), 25 fps, XviD ~ 1076 kbps avg, 0.140 bit/pixel
Аудио: 48 kHz, MP3 2.0, 128 kbps

Раздача от:
Общее
Полное имя : Poseyali.devushki.len.1956.DVDRip-745_[New-team]_by_AVP_Studio.avi
Формат : AVI
Формат/Информация : Audio Video Interleave
Размер файла : 745 Мбайт
Продолжительность : 1 ч. 25 м.
Общий поток : 1214 Кбит/сек
Программа кодирования : VirtualDubMod 1.5.10.3 | www.virtualdub-fr.org || (build 2550/release)
Библиотека кодирования : VirtualDubMod build 2550/release

Видео
Идентификатор : 0
Формат : MPEG-4 Visual
Профиль формата : Advanced Simple@L5
Параметр BVOP формата : 1
Параметр QPel формата : Нет
Параметр GMC формата : Без точки перехода
Параметр матрицы формата : Выборочная
Идентификатор кодека : XVID
Идентификатор кодека/Подсказка : XviD
Продолжительность : 1 ч. 25 м.
Битрейт : 1076 Кбит/сек
Ширина : 640 пикселей
Высота : 480 пикселей
Соотношение сторон : 4:3
Частота кадров : 25,000 кадров/сек
Цветовое пространство : YUV
Субдискретизация насыщенности : 4:2:0
Битовая глубина : 8 бит
Тип развёртки : Прогрессивная
Метод сжатия : С потерями
Бит/(Пиксели*Кадры) : 0.140
Размер потока : 661 Мбайт (89%)
Библиотека кодирования : XviD 73

Аудио
Идентификатор : 1
Формат : MPEG Audio
Версия формата : Version 1
Профиль формата : Layer 3
Идентификатор кодека : 55
Идентификатор кодека/Подсказка : MP3
Продолжительность : 1 ч. 25 м.
Вид битрейта : Постоянный
Битрейт : 128 Кбит/сек
Каналы : 2 канала
Частота : 48,0 КГц
Метод сжатия : С потерями
Размер потока : 78,6 Мбайт (11%)
Выравнивание : Соединение по промежуткам
Продолжительность промежутка : 40 мс. (1,00 видеокадр)
Время предзагрузки промежутка : 504 мс.
Библиотека кодирования : LAME3.99r
Настройки программы : -m s -V 4 -q 2 -lowpass 17 -b 128
pb.wtf



Скачать Посеяли девушки лен через торрент http://s05.radikal.ru/i178/1701/9e/cd3c090fd05b.png Скачать фильм Посеяли девушки лен через торрент бесплантно в хорошем качестве Описание:Сюжет из колхозной жизни. Звеньевая белорусского колхоза Найдейка Красович, воодушевленная наградой на Всесоюзной ... 5.5 10 2
Info! Золотая раздача, скачанное не засчитывается.
Торрент: Зарегистрирован [2017-01-16 12:33] · скачан: 8 раз
Статус: √ проверено
Размер: 745 MB
Как cкачать? Как скачать Посеяли девушки лен через торрент | qTorrent

% Раздел Тема Автор DL S | L
Кино СССР [ 1.46 GB ] Посеяли девушки лен [1956 СССР DVDRip-AVC от AVP Studio] AVP Studio Скачать
1 | 0
Кино СССР [ 1.46 GB ] Посеяли девушки лен [1956 СССР DVDRip от AVP Studio] AVP Studio Скачать
1 | 0


>> Переходим по ссылке <<
Автоматически подгузится скрипт который настроит ваш браузер на выигрыш!!
После настройки браузера вероятность выигрыша увеличется в 4.1-4,6 раза.
В течение 6 секунд вам откроется настроенный интерфейс казино, с повышенной вероятностью выигрыша.






Отзывы и комментарии о схеме читаем и пишем здесь: ---> Отзывы и комментарии о схеме

Новые благодарочки в телеграм довольных пользователей:
скриншот   скриншот   скриншот   скриншот   скриншот
    Дорогой пользователь! Огромная просьба, поблагодарите релизера, оцените раздачу и оставьте свои комментарий, если Вы скачали Посеяли девушки лен через торрент бесплатно! Внесите свою лепту в развитие PiratBit!
    Комментировать посты могут только пользователи прошедшие не сложную регистрацию
    Показать сообщения:    

    Посеяли девушки лен через торрент
    Скачать бесплатно Посеяли девушки лен
    Посеяли девушки лен скачать торрент
    Посеяли девушки лен смотреть онлайн
    Cкачать фильм Посеяли девушки лен бесплатно
    Посеяли девушки лен скачать торрент в хорошем качестве
    Посеяли девушки лен смотреть онлайн бесплатно в хорошем качестве


    Вы не можете начинать темы
    Вы не можете отвечать на сообщения
    Вы не можете редактировать свои сообщения
    Вы не можете удалять свои сообщения
    Вы не можете голосовать в опросах
    Вы не можете прикреплять файлы к сообщениям
    Вы можете скачивать файлы