Ссылка на приватное зеркало нашего сайта всего за 1$. Внимание количество ограничено!!!

2 сезон

iTunes

1 сезон

1

2 сезон

2 сезон

iTunes

1 сезон

RePack

30

Новинка

ВАЖНО

ИГРА 18+

pack

RePack

MK11
pack

Забери бонус

RePack

jed

!!Акция!!

Alien_Rage

RePack

fifa19

RePack

Assassins Creed: Odyssey

RePack

NEED FOR SPEED™ PAYBACK

4 сезон

9 сезон

Бесстыжие 9 сезон

Все сериалы

все сериалы на PB.wtf

RePack

FAR CRY 5
  

Парни со стволами / War Dogs (Тодд Филлипс) [2016 г., Драма, комедия, военный, BD Remux, Дубляж BD CEE] pb.wtf

Парни со стволами через торрент pb.wtf

Размер: 30.12 GB | Добавлен: 3 года 10 мес. назад | Торрент скачан:4 раза
Скачать  

16-01-2017 13:16 Парни со стволами Скачать торрент  

Парни со стволами / War Dogs
Год выпуска: 2016
Страна: США
Жанр: Драма, комедия, военный
Продолжительность: 01:54:13
Перевод: Дубляж (BD CEE)+ авторский [Дмитрий Есарев]+ Оригинал
Субтитры: Русские, английские

Режиссер: Тодд Филлипс

В ролях: Майлз Теллер, Джона Хилл, Ана де Армас, Кевин Поллак, Брэдли Купер, Джейби Бланк, Шон Тоуб

Описание: В погоне за баснословной прибылью Эфраим и Дэвид окунаются в безумный мир торговцев оружием. Им предстоит побывать в лучших отелях, ездить на самых престижных автомобилях и… скрываться на грузовике от разъяренных моджахедов. Еще вчера Эфраим и Дэвид были обычными «укурками», а сегодня они работают на Пентагон и зарабатывают миллионы. И не важно, что они ведут игру со смертью.

Качество: BD Remux
Формат: MKV
Видео кодек: AVC
Аудио кодек: AC3-DTS
Видео: MPEG-4 AVC, (1920x1080),29 400 Кбит/с, 23.976 кадра/сек
Аудио#1: AC3, 6 ch,640 kbps (Rus) 48.0 KHz Дублированный [Blu-Ray CEE]
Аудио#2: AC3, 6 ch,640 kbps (Rus) 48.0 KHz авторский [Дмитрий Есарев]
Аудио#3: DTS, 6 ch,1509 kbps (Rus) 48.0 KHz авторский [Дмитрий Есарев]
Аудио#4: DTS, 6 ch,1509 kbps (Eng) 48.0 KHz Оригинал
скриншот   скриншот   скриншот  

Тип потока: Видео
Длительность: 01:54:12
Кодек: AVC
Кодек/описание: Advanced Video Codec
Кодек/профиль: High@L4.1
Кодек/ID: V_MPEG4/ISO/AVC
Кодек/CABAC: Yes
Кодек/ReFrames: 2 frames
Размеры изображения: 1920 x 1080 (16:9)
Частота кадров: 23.976 fps
Частота кадров/тип: Constant
Битрейт/тип: VBR
Цветовое пространство: YUV
Тип развёртки: Progressive
Колориметрия: 4:2:0
Глубина: 8 bits
:
Тип потока: Звук #1
Язык: Russian
Название: DUB [Blu-Ray CEE]
Длительность: 01:54:12.896
Кодек: AC-3
Кодек/описание: Audio Coding 3
Кодек/ID: A_AC3
Частота дискретизации: 48.0 KHz
Каналов: 6 channels
Битрейт: 640 Kbps
Битрейт/тип: Constant
Размер потока: 523 MiB (2%)
Глубина: 16 bits
Метод сжатия: Lossy
:
Тип потока: Звук #2
Язык: Russian
Название: AVO-AC3 [Esarev]
Длительность: 01:54:12.896
Кодек: AC-3
Кодек/описание: Audio Coding 3
Кодек/ID: A_AC3
Частота дискретизации: 48.0 KHz
Каналов: 6 channels
Битрейт: 640 Kbps
Битрейт/тип: Constant
Размер потока: 523 MiB (2%)
Глубина: 16 bits
Метод сжатия: Lossy
:
Тип потока: Звук #3
Язык: Russian
Название: AVO-DTS-HD MA [Esarev]
Длительность: 01:54:12.896
Кодек: DTS
Кодек/описание: Digital Theater Systems
Кодек/профиль: MA / Core
Кодек/ID: A_DTS
Частота дискретизации: 48.0 KHz
Каналов: 6 channels
Битрейт: Unknown / 1 509 Kbps
Битрейт/тип: Variable
Глубина: 24 bits
Метод сжатия: Lossless / Lossy
:
Тип потока: Звук #4
Язык: English
Название: Original
Длительность: 01:54:12.896
Кодек: DTS
Кодек/описание: Digital Theater Systems
Кодек/профиль: MA / Core
Кодек/ID: A_DTS
Частота дискретизации: 48.0 KHz
Каналов: 6 channels
Битрейт: Unknown / 1 509 Kbps
Битрейт/тип: Variable
Глубина: 24 bits
Метод сжатия: Lossless / Lossy
:
Тип потока: Субтитры #1
Язык: Russian
Формат: UTF-8
Формат/подробно: UTF-8 Plain Text
Название: Forced
:
Тип потока: Субтитры #2
Язык: Russian
Формат: UTF-8
Формат/подробно: UTF-8 Plain Text
Название: Full
:
Тип потока: Субтитры #3
Язык: English
Формат: UTF-8
Формат/подробно: UTF-8 Plain Text
Название: Full
:
Тип потока: Субтитры #4
Язык: English
Формат: UTF-8
Формат/подробно: UTF-8 Plain Text
Название: SDH

pb.wtf



Скачать Парни со стволами через торрент http://pic1.kartinco.top/images/11/ubfdq.jpg Скачать фильм Парни со стволами через торрент бесплантно в хорошем качестве Описание: В погоне за баснословной прибылью Эфраим и Дэвид окунаются в безумный мир торговцев оружием. Им предстоит побывать в лучших ... 7.8 10 4
Info! Золотая раздача, скачанное не засчитывается.
Торрент: Зарегистрирован [2017-01-16 13:16] · скачан: 4 раз
Статус: √ проверено
Размер: 30.12 GB
Как cкачать? Как скачать Парни со стволами через торрент | qTorrent

% Раздел Тема Автор DL S | L
Фильмы [HD 720p, 1080p] (Хороший звук DUB, MVO) [ 5.75 GB ] Парни со стволами / War Dogs [2016 военный BDRip-HEVC 1080p ] DUB [ Blu-Ray CEE] bober100 Скачать
2 | 0
Ultra HD (UHD: 2K, 4K, 8K) — видео сверхвысокой чёткости [ 55.31 GB ] Парни со стволами / War Dogs [2016 военный UHD BDRemux 2160p] DUB [] + 2xAVO sheker187 Скачать
1 | 0
Ultra HD (UHD: 2K, 4K, 8K) — видео сверхвысокой чёткости [ 52.44 GB ] Парни со стволами / War Dogs [2016 военный UHD BDRemux 2160p] [Д. Есарев] AVO+DUB [ Blu-Ray CEE] bober100 Скачать
1 | 0
Фильмы (WEB-DL 720p, 1080p) [ 4.46 GB ] Парни со стволами / War Dogs [2016 WEB-DLRip 720p] Dub AVO - [Open Matte] - ExKinoRay Enigma2010 Скачать
1 | 0
Фильмы (Blu-ray, BD-Remux, HDDVD) [ 34.27 GB ] Парни со стволами / War Dogs [2016 военный Blu-ray CEE 1080p] DUB [] bober100 Скачать
1 | 0
Фильмы (Blu-ray, BD-Remux, HDDVD) [ 26.55 GB ] Парни со стволами / War Dogs [2016 военный Blu-Ray Remux 1080p] + 2x[Sub] killermax2013 Скачать
1 | 0
Фильмы 2016 [DVDrip, WEB-DLRip, HDrip] (DUB, MVO) [ 2.18 GB ] Парни со стволами / War Dogs [2016 WEB-DLRip] - [] Twi7ter Скачать
1 | 0

28-11-2019 20:33  

Отключить всю рекламу на сайте

    Дорогой пользователь! Огромная просьба, поблагодарите релизера, оцените раздачу и оставьте свои комментарий, если Вы скачали Парни со стволами через торрент бесплатно! Внесите свою лепту в развитие PiratBit!
    Комментировать посты могут только пользователи прошедшие не сложную регистрацию
    Показать сообщения:    

    Парни со стволами через торрент
    Скачать бесплатно Парни со стволами
    Парни со стволами скачать торрент
    Парни со стволами смотреть онлайн
    Cкачать фильм Парни со стволами бесплатно
    Парни со стволами скачать торрент в хорошем качестве
    Парни со стволами смотреть онлайн бесплатно в хорошем качестве


    Вы не можете начинать темы
    Вы не можете отвечать на сообщения
    Вы не можете редактировать свои сообщения
    Вы не можете удалять свои сообщения
    Вы не можете голосовать в опросах
    Вы не можете прикреплять файлы к сообщениям
    Вы можете скачивать файлы