Ссылка на приватное зеркало нашего сайта всего за 1$. Внимание количество ограничено!!!

2 сезон

iTunes

1 сезон

1

2 сезон

2 сезон

iTunes

1 сезон

RePack

30

Ultimate

ВАЖНО

ИГРА 18+

pack

RePack

MK11
pack

Забери бонус

RePack

jed

!!Акция!!

Alien_Rage

RePack

fifa19

RePack

Assassins Creed: Odyssey

RePack

NEED FOR SPEED™ PAYBACK

4 сезон

9 сезон

Бесстыжие 9 сезон

Все сериалы

все сериалы на PB.wtf

RePack

FAR CRY 5
  

Лемони Сникет: 33 несчастья / A Series of Unfortunate Events / Сезон: 1 / Серии 1-8 из 8 (Бэрри Зонненфельд, Марк Палански, Бо Уэлш) [2017, Драма, приключения, семейный, WEBRip 720p] [MVO] (NewStudio) pb.wtf

Лемони Сникет: 33 несчастья через торрент pb.wtf

Размер: 11.06 GB | Добавлен: 3 года 10 мес. назад | Торрент скачан:155 раз
Скачать  

16-01-2017 16:49 Лемони Сникет: 33 несчастья Скачать торрент  

Лемони Сникет: 33 несчастья / A Series of Unfortunate Events
Год выпуска: 2017
Страна: США
Жанр: Драма, приключения, семейный
Продолжительность: 1x ~00:45:00
Перевод: Профессиональный (многоголосый закадровый) NewStudio
Субтитры: Русские (на песни и надписи), английские

Режиссёр: Бэрри Зонненфельд, Марк Палански, Бо Уэлш

В ролях:Нил Патрик Харрис, Усман Элли, Мэттью Кардаропле, Джон ДеСантис, Луи Хайнс, Малина Вайсман, Сара Каннинг, Патрик Китинг, Кэтрин О’Хара, Элфри Вудард и другие

Описание: Трое детей семьи Бодлер — Вайолет, Клаус и Солнышко — после страшного пожара остаются сиротами и оказываются на попечении графа Олафа, который всеми силами хочет захватить наследство детей. Дети всячески пытаются объяснить всем вокруг, что граф Олаф не просто плохой опекун, но и ещё пытается убить их, чтобы разбогатеть; разумеется, никто детей не слушает. И только из-за непонимания взрослых сироты попадают в разные злоключения.



Качество: WEBRip 720p
Формат: MKV
Видео: MPEG-4 AVC, ~ 3429 Кбит/с, 1280x640 (16:9), 23,976 fps
Аудио 1: AC3, 384 kbps, 6 ch, 48 kHz [Rus]
Аудио 2:AC3, 384 kbps, 6 ch, 48 kHz [Eng]

Общее
Уникальный идентификатор : 243630609544784755325848727513333293558 (0xB7498C72F5F290998906D4089B28E1F6)
Полное имя : D:\Загрузки\A Series of Unfortunate Events - Лемони Сникетт. 33 несчастья. (2017) Сезон 1. NewStudio\A.Series.of.Unfortunate.Events.s01e01.WEBRip.720p.NewStudio.mkv
Формат : Matroska
Версия формата : Version 4 / Version 2
Размер файла : 1,46 Гбайт
Продолжительность : 48 м. 49 с.
Общий поток : 4282 Кбит/сек
Название фильма : A Series of Unfortunate Events s01e01
Дата кодирования : UTC 2017-01-16 09:55:18
Программа кодирования : mkvmerge v6.9.1 ('Blue Panther') 64bit built on Apr 18 2014 18:23:38
Библиотека кодирования : libebml v1.3.0 + libmatroska v1.4.1
Видео
Идентификатор : 1
Формат : AVC
Формат/Информация : Advanced Video Codec
Профиль формата : High@L4.1
Параметр CABAC формата : Да
Параметр ReFrames формата : 9 кадров
Идентификатор кодека : V_MPEG4/ISO/AVC
Продолжительность : 48 м. 49 с.
Битрейт : 3429 Кбит/сек
Ширина : 1280 пикселей
Высота : 640 пикселей
Соотношение сторон : 2,000
Режим частоты кадров : Постоянный
Частота кадров : 24,000 кадра/сек
Цветовое пространство : YUV
Субдискретизация насыщенности : 4:2:0
Битовая глубина : 8 бит
Тип развёртки : Прогрессивная
Бит/(Пиксели*Кадры) : 0.174
Размер потока : 1,17 Гбайт (80%)
Библиотека кодирования : x264 core 148 r2744+8 b97ae06 / tmod bb0ae40 X86_64
Настройки программы : cabac=1 / ref=9 / deblock=1:-3:-3 / analyse=0x3:0x113 / me=umh / subme=10 / psy=1 / fade_compensate=0.00 / psy_rd=1.05:0.15 / mixed_ref=1 / me_range=48 / chroma_me=1 / trellis=2 / 8x8dct=1 / cqm=0 / deadzone=6,6 / fast_pskip=0 / chroma_qp_offset=-3 / threads=22 / lookahead_threads=3 / sliced_threads=0 / nr=0 / decimate=0 / interlaced=0 / bluray_compat=0 / constrained_intra=0 / fgo=0 / bframes=9 / b_pyramid=2 / b_adapt=2 / b_bias=0 / direct=3 / weightb=1 / open_gop=0 / weightp=2 / keyint=250 / keyint_min=24 / scenecut=40 / intra_refresh=0 / rc=crf / mbtree=0 / crf=18.0000 / qcomp=0.70 / qpmin=0:0:0 / qpmax=69:69:69 / qpstep=4 / ip_ratio=1.10 / pb_ratio=1.10 / aq=3:0.75 / aq-sensitivity=10.00 / aq-factor=1.00:1.00:1.00 / aq2=0 / aq3=0
Язык : English
Default : Да
Forced : Нет
Аудио #1
Идентификатор : 2
Формат : AC-3
Формат/Информация : Audio Coding 3
Расширение режима : CM (complete main)
Параметр Endianness формата : Big
Идентификатор кодека : A_AC3
Продолжительность : 48 м. 49 с.
Вид битрейта : Постоянный
Битрейт : 384 Кбит/сек
Каналы : 6 каналов
Расположение каналов : Front: L C R, Side: L R, LFE
Частота : 48,0 КГц
Частота кадров : 31,250 кадров/сек (1536 spf)
Битовая глубина : 16 бит
Метод сжатия : С потерями
Размер потока : 134 Мбайт (9%)
Язык : Russian
Default : Да
Forced : Нет
Аудио #2
Идентификатор : 3
Формат : AC-3
Формат/Информация : Audio Coding 3
Расширение режима : CM (complete main)
Параметр Endianness формата : Big
Идентификатор кодека : A_AC3
Продолжительность : 48 м. 49 с.
Вид битрейта : Постоянный
Битрейт : 384 Кбит/сек
Каналы : 6 каналов
Расположение каналов : Front: L C R, Side: L R, LFE
Частота : 48,0 КГц
Частота кадров : 31,250 кадров/сек (1536 spf)
Битовая глубина : 16 бит
Метод сжатия : С потерями
Размер потока : 134 Мбайт (9%)
Язык : English
Default : Нет
Forced : Нет
Текст #1
Идентификатор : 4
Формат : UTF-8
Идентификатор кодека : S_TEXT/UTF8
Идентификатор кодека/Информация : UTF-8 Plain Text
Язык : Russian
Default : Да
Forced : Да
Текст #2
Идентификатор : 5
Формат : UTF-8
Идентификатор кодека : S_TEXT/UTF8
Идентификатор кодека/Информация : UTF-8 Plain Text
Язык : English
Default : Нет
Forced : Нет
Внимание! Раздача ведётся путём добавления новых серий; при каждом добавлении создаётся новый торрент. Чтобы начать докачку новой серии, пользователям необходимо сделать следующее:
(1) остановить скачивание,
(2) удалить старый торрент у себя из клиента (старые серии удалять не надо),
(3) скачать новый торрент и запустить его у себя в клиенте вместо старого, при этом указать клиенту путь в старую папку куда и должно происходить скачивание новых серий.
Ваш клиент при этом должен произвести хеширование (проверку) старой папки (если не производит сам - помогите ему сделать это), и будет докачивать только те серии которых у вас ещё нет. Старые серии при этом не удаляются, а продолжают раздаваться!
Eсли вы уже удалили старые серии, то предотвратить повторную закачку старых серий можно, отжав галочку в соответствующих местах при запуске нового торрента. По возможности, желательно не удалять старые серии как можно дольше чтобы релизёр не столько продолжал раздавать старые серии, а смог сконцентрироваться на новых.
pb.wtf



Скачать Лемони Сникет: 33 несчастья через торрент http://i84.fastpic.ru/big/2016/1030/0a/0d987b9d5f5efa72f3681f7fae0ea20a.png Скачать фильм Лемони Сникет: 33 несчастья через торрент бесплантно в хорошем качестве Описание: Трое детей семьи Бодлер — Вайолет, Клаус и Солнышко — после страшного пожара остаются сиротами и оказываются на попечении графа ... 10 10 7
Info! Золотая раздача, скачанное не засчитывается.
Торрент: Зарегистрирован [2017-01-28 10:17] · скачан: 155 раз
Статус: √ проверено
Размер: 11.06 GB
Как cкачать? Как скачать Лемони Сникет: 33 несчастья через торрент | qTorrent

% Раздел Тема Автор DL S | L
Зарубежные сериалы [ 36.1 GB ] Лемони Сникет: 33 несчастья / A Series of Unfortunate Events / Сезон: 1 / Серии 1-8 из 8 [2017 WEBRip 1080p] 3x[MVO] killermax2013 Скачать
1 | 0
Зарубежные сериалы [ 5.97 GB ] Лемони Сникет: 33 несчастья / A Series of Unfortunate Events / Сезон 1 / Серии 1-8 из 8 [2017 WEBRip] MVO [LostFilm] bober100 Скачать
1 | 0
Зарубежные сериалы [ 4.53 GB ] Лемони Сникет: 33 несчастья / A Series of Unfortunate Events / Сезон: 1 / Серии 1-8 из 8 [2017 WEBRip] [MVO] killermax2013 Скачать
1 | 0
Зарубежные сериалы [ 8.7 GB ] Лемони Сникет: 33 несчастья / A Series of Unfortunate Events/ Сезон: 1 / Серии 1-7 из 8 [2017 WEBRip 720p] [Sub Rus] killermax2013 Скачать
1 | 0
Зарубежные сериалы [ 5.13 GB ] Лемони Сникет: 33 несчастья / A Series of Unfortunate Events/ Сезон: 1 / Серии 1-8 из 8 [2017 WEBRip] [MVO] killermax2013 Скачать
1 | 0
Зарубежные сериалы [ 11.69 GB ] Лемони Сникет: 33 несчастья / A Series of Unfortunate Events/ Сезон: 1 / Серии 1-8 из 8 [2017 WEBRip 720p] [MVO] killermax2013 Скачать
1 | 0
Зарубежные сериалы [ 4.67 GB ] Лемони Сникет: 33 несчастья / A Series of Unfortunate Events/ Сезон: 1 / Серии 1-8 из 8 [2017 WEBRip] [MVO] killermax2013 Скачать
1 | 0


Последний раз редактировалось: killermax2013 (2017-01-28 10:17), всего редактировалось 3 раз(а)

28-11-2019 20:33  

Отключить всю рекламу на сайте

16-01-2017 17:06 Лемони Сникет: 33 несчастья Скачать торрент  



killermax2013, еще раз обращаю внимание на требование администрации трекера: http://piratbit.cc/topic/225012/

Цитата:

Просьба к релизёрам, использовать наши информеры в темах
или такие классические
Но, категорически запрещено использовать информеры не отображающие полной информации

Замените IMDb информер, или удалите его совсем.pb.wtf



16-01-2017 17:19 Лемони Сникет: 33 несчастья Скачать торрент  

описание четкоеpb.wtf



28-01-2017 10:17 Лемони Сникет: 33 несчастья Скачать торрент  

Полный сезонpb.wtf



    Дорогой пользователь! Огромная просьба, поблагодарите релизера, оцените раздачу и оставьте свои комментарий, если Вы скачали Лемони Сникет: 33 несчастья через торрент бесплатно! Внесите свою лепту в развитие PiratBit!
    Комментировать посты могут только пользователи прошедшие не сложную регистрацию
    Показать сообщения:    

    Лемони Сникет: 33 несчастья через торрент
    Скачать бесплатно Лемони Сникет: 33 несчастья
    Лемони Сникет: 33 несчастья скачать торрент
    Лемони Сникет: 33 несчастья смотреть онлайн
    Cкачать фильм Лемони Сникет: 33 несчастья бесплатно
    Лемони Сникет: 33 несчастья скачать торрент в хорошем качестве
    Лемони Сникет: 33 несчастья смотреть онлайн бесплатно в хорошем качестве


    Вы не можете начинать темы
    Вы не можете отвечать на сообщения
    Вы не можете редактировать свои сообщения
    Вы не можете удалять свои сообщения
    Вы не можете голосовать в опросах
    Вы не можете прикреплять файлы к сообщениям
    Вы можете скачивать файлы