2 сезон

iTunes

1 сезон

1

iTunes

iTunes

iTunes

1 сезон

RePack

30

ИГРА 18+

pack

ВАЖНО

!!Акция!!

Alien_RageХит недели

RePack

MK11
pack

Забери бонус

RePack

jed

!!Акция!!

Alien_Rage

RePack

fifa19

RePack

Assassins Creed: Odyssey

RePack

NEED FOR SPEED™ PAYBACK

4 сезон

9 сезон

Бесстыжие 9 сезон

Все сериалы

все сериалы на PB.wtf

RePack

FAR CRY 5
  

Саранча (Расширенная телеверсия) / 1-4 серии из 4 (Егор Баранов) [2013 г., триллер, драма, криминал, эротика, WEB-DLRip 720p] pb.wtf

Саранча через торрент pb.wtf

Размер: 3.96 GB | Добавлен: 3 года 9 мес. назад | Торрент скачан:226 раз
Скачать  

17-01-2017 13:59 Саранча Скачать торрент  

Саранча (Расширенная телеверсия)
Год выпуска: 2013
Страна: Россия
Жанр: триллер, драма, криминал, эротика
Продолжительность: 4 x ~ 00:50:00
Субтитры: отсутствуют

Режиссер: Егор Баранов



В ролях:

Пётр Фёдоров, Паулина Андреева, Дмитрий Шевченко, Екатерина Волкова, Евгения Дмитриева, Максим Пинскер, Алексей Горбунов, Евгений Стычкин, Александр Голубков, Иван Щенин, Андрей Бут, Александр Молочников, Степан Самойленко, Анастасия Акатова, Бесо Гатаев, Валерий Шорохов, Игорь Мулев, Анатолий Антонюк, Сергей Фролов (III), Ольга Оганезова

Описание:

У них не было ничего общего: Артем – простой парень из провинции, работяга и поэт, Лера – столичная штучка, чью жизнь распланировали родители. Но банальный курортный роман оборачивается обжигающей страстью, которая ломает судьбы. И хотя Лера выходит замуж за друга отца, а Артем назло женится на богатой даме постарше, их безумное влечение рушит все барьеры. Жажда плоти невыносима, и для приговоренных друг к другу любовников уже не существует ни правил, ни опасности, ни страха. И когда разрушительная страсть обагряется кровью, они уже не в силах остановиться...

Качество: WEB-DLRip 720p
Формат: MKV
Видео кодек: H.264
Аудио кодек: AC3

Видео: 1280х720 (16:9), 25 fps, AVC MPEG-4 (x264), High@L4, ~ 2569 kbps avg, 0.112 bit/pixel
Аудио#1: 48 kHz, AC3, 2/0 (L,R) ch, ~192 kbps
Общее
Уникальный идентификатор : 221076835115433928817299526327300961610 (0xA651D9845C6556028DEAB65C16CAB54A)
Полное имя : C:\Саранча.2013.Unrated.720p.\01.mkv
Формат : Matroska
Версия формата : Version 2
Размер файла : 949 Мбайт
Продолжительность : 48 м. 8 с.
Общий поток : 2756 Кбит/сек
Дата кодирования : UTC 2017-01-17 05:32:11
Программа кодирования : mkvmerge v6.1.0 ('Old Devil') built on Mar 4 2013 09:10:42
Библиотека кодирования : libebml v1.3.0 + libmatroska v1.4.0

Видео
Идентификатор : 1
Формат : AVC
Формат/Информация : Advanced Video Codec
Профиль формата : High@L4
Параметр CABAC формата : Да
Параметр ReFrames формата : 4 кадра
Идентификатор кодека : V_MPEG4/ISO/AVC
Продолжительность : 48 м. 8 с.
Битрейт : 2569 Кбит/сек
Ширина : 1280 пикселей
Высота : 720 пикселей
Соотношение сторон : 16:9
Режим частоты кадров : Постоянный
Частота кадров : 25,000 кадров/сек
Цветовое пространство : YUV
Субдискретизация насыщенности : 4:2:0
Битовая глубина : 8 бит
Тип развёртки : Прогрессивная
Бит/(Пиксели*Кадры) : 0.112
Размер потока : 864 Мбайт (91%)
Библиотека кодирования : x264 core 142
Настройки программы : cabac=1 / ref=3 / deblock=1:0:0 / analyse=0x3:0x113 / me=hex / subme=7 / psy=1 / psy_rd=1.00:0.00 / mixed_ref=1 / me_range=16 / chroma_me=1 / trellis=1 / 8x8dct=1 / cqm=0 / deadzone=21,11 / fast_pskip=1 / chroma_qp_offset=-2 / threads=36 / lookahead_threads=5 / sliced_threads=0 / nr=0 / decimate=1 / interlaced=0 / bluray_compat=0 / constrained_intra=0 / bframes=6 / b_pyramid=2 / b_adapt=1 / b_bias=0 / direct=1 / weightb=1 / open_gop=0 / weightp=2 / keyint=200 / keyint_min=20 / scenecut=0 / intra_refresh=0 / rc_lookahead=40 / rc=2pass / mbtree=1 / bitrate=2569 / ratetol=1.0 / qcomp=0.60 / qpmin=0 / qpmax=69 / qpstep=4 / cplxblur=20.0 / qblur=0.5 / vbv_maxrate=3854 / vbv_bufsize=10279 / nal_hrd=none / filler=0 / ip_ratio=1.40 / aq=1:1.00
Default : Да
Forced : Нет

Аудио
Идентификатор : 2
Формат : AC-3
Формат/Информация : Audio Coding 3
Расширение режима : CM (complete main)
Параметр Endianness формата : Big
Идентификатор кодека : A_AC3
Продолжительность : 48 м. 8 с.
Вид битрейта : Постоянный
Битрейт : 192 Кбит/сек
Каналы : 2 канала
Расположение каналов : Front: L R
Частота : 48,0 КГц
Частота кадров : 31,250 кадров/сек (1536 spf)
Битовая глубина : 16 бит
Метод сжатия : С потерями
Размер потока : 66,1 Мбайт (7%)
Default : Да
Forced : Нет
скриншот   скриншот   скриншот   скриншот  
pb.wtf



Скачать Саранча через торрент http://pic1.kartinco.top/images/11/mbgy9.jpg Скачать фильм Саранча через торрент бесплантно в хорошем качестве Описание: У них не было ничего общего: Артем – простой парень из провинции, работяга и поэт, Лера – столичная штучка, чью жизнь ... 10 10 8
Торрент: Зарегистрирован [2017-01-17 13:59] · скачан: 226 раз
Статус: √ проверено
Размер: 3.96 GB
Как cкачать? Как скачать Саранча через торрент | qTorrent

% Раздел Тема Автор DL S | L
T Фильмы (мультфильмы) cо спонсором показа (Новинки AVI/MKV) [ 3.42 GB ] Саранча / Locusts [2019 WEB-DL 720p] MVO ["Синема УС"] bober100 Скачать
2 | 0
T Фильмы (мультфильмы) cо спонсором показа (Новинки AVI/MKV) [ 1.37 GB ] Саранча / Locusts [2019 WEB-DLRip] MVO ["Синема УС"] bober100 Скачать
2 | 0
Наши фильмы (HD, WEB-DL 720p, 1080p) [ 4.2 GB ] Саранча [2013 WEB-DL 1080p] [Русский] -Lexx- Скачать
1 | 0
Наши новые фильмы 2015 [ 747 MB ] Саранча [2015 WEB-DLRip от MegaPeer] $-DRON-$ Скачать
1 | 0

28-11-2019 20:33  

Отключить всю рекламу на сайте

17-01-2017 21:11 Саранча Скачать торрент  

Решил отчёт делать каждой серии?pb.wtf



    Дорогой пользователь! Огромная просьба, поблагодарите релизера, оцените раздачу и оставьте свои комментарий, если Вы скачали Саранча через торрент бесплатно! Внесите свою лепту в развитие PiratBit!
    Комментировать посты могут только пользователи прошедшие не сложную регистрацию
    Показать сообщения:    

    Саранча через торрент
    Скачать бесплатно Саранча
    Саранча скачать торрент
    Саранча смотреть онлайн
    Cкачать фильм Саранча бесплатно
    Саранча скачать торрент в хорошем качестве
    Саранча смотреть онлайн бесплатно в хорошем качестве


    Вы не можете начинать темы
    Вы не можете отвечать на сообщения
    Вы не можете редактировать свои сообщения
    Вы не можете удалять свои сообщения
    Вы не можете голосовать в опросах
    Вы не можете прикреплять файлы к сообщениям
    Вы можете скачивать файлы