Ссылка на приватное зеркало нашего сайта всего за 1$. Внимание количество ограничено!!!

2 сезон

iTunes

1 сезон

1

2 сезон

2 сезон

iTunes

1 сезон

RePack

30

Ultimate

ВАЖНО

ИГРА 18+

pack

RePack

MK11
pack

Забери бонус

RePack

jed

!!Акция!!

Alien_Rage

RePack

fifa19

RePack

Assassins Creed: Odyssey

RePack

NEED FOR SPEED™ PAYBACK

4 сезон

9 сезон

Бесстыжие 9 сезон

Все сериалы

все сериалы на PB.wtf

RePack

FAR CRY 5
  

Лемони Сникет: 33 несчастья / A Series of Unfortunate Events/ Сезон: 1 / Серии 1-7 из 8 (Бэрри Зонненфельд, Марк Палански, Бо Уэлш) [2017, Драма, приключения, семейный, WEBRip 720p] [Sub Rus] (Notabenoid) pb.wtf

Лемони Сникет: 33 несчастья через торрент pb.wtf

Размер: 8.7 GB | Добавлен: 3 года 9 мес. назад | Торрент скачан:6 раз
Скачать  

17-01-2017 14:54 Лемони Сникет: 33 несчастья Скачать торрент  

Лемони Сникет: 33 несчастья / A Series of Unfortunate Events
Год выпуска: 2017
Страна: США
Жанр: драма, приключения, семейный
Продолжительность: 1x ~00:45:00
Перевод: Русские субтитры (Notabenoid)
Субтитры: Русские, английские
Оригинальная аудиодорожка: английский

Режиссёры: Барри Зонненфельд, Марк Палански, Бо Уэлш

В ролях: Нил Патрик Харрис ("Как я встретил вашу маму"), Усман Элли, Мэттью Кардаропле, Джон ДеСантис, Луи Хайнс, Малина Вайсман, Сара Каннинг, Патрик Китинг, Кэтрин О’Хара, Элфри Вудард и др.

Описание: Трое детей семьи Бодлер — Вайолет, Клаус и Солнышко — после страшного пожара остаются сиротами и оказываются на попечении графа Олафа, который всеми силами хочет захватить наследство детей. Дети всячески пытаются объяснить всем вокруг, что граф Олаф не просто плохой опекун, но и ещё пытается убить их, чтобы разбогатеть; разумеется, никто детей не слушает. И только из-за непонимания взрослых сироты попадают в разные злоключения.



Качество: WEBRip 720p
Контейнер: MKV
Видео: 1280x640 (16:9), 24 fps, ~3200kbps, ~0.164 bit/pixel
Аудио: 48 kHz, AC3 Dolby Digital, 3/2 (L,C,R,l,r) + LFE ch, ~384.00 kbps

Реклама: отсутствует
Общее
Уникальный идентификатор : 242519486299311962770358177071633704035 (0xB6738DD7EED678DFA2F55EFF4072A463)
Полное имя : D:\Видео\Сериалы\A Series of Unfortunate Events\A Series of Unfortunate Events - 01.mkv
Формат : Matroska
Версия формата : Version 4 / Version 2
Размер файла : 1,28 Гбайт
Продолжительность : 49 м.
Общий поток : 3689 Кбит/сек
Дата кодирования : UTC 2017-01-16 08:52:58
Программа кодирования : mkvmerge v8.4.0 ('A better way to fly') 64bit
Библиотека кодирования : libebml v1.3.1 + libmatroska v1.4.2
DURATION : 00:49:42.304000000
NUMBER_OF_FRAMES : 93197
NUMBER_OF_BYTES : 143150592
_STATISTICS_WRITING_APP : mkvmerge v8.4.0 ('A better way to fly') 64bit
_STATISTICS_WRITING_DATE_UTC : 2017-01-16 08:52:58
_STATISTICS_TAGS : BPS DURATION NUMBER_OF_FRAMES NUMBER_OF_BYTES
Видео
Идентификатор : 1
Формат : AVC
Формат/Информация : Advanced Video Codec
Профиль формата : High@L4.1
Параметр CABAC формата : Да
Параметр ReFrames формата : 9 кадров
Идентификатор кодека : V_MPEG4/ISO/AVC
Продолжительность : 49 м.
Битрейт : 3231 Кбит/сек
Ширина : 1280 пикселей
Высота : 640 пикселей
Соотношение сторон : 2,000
Режим частоты кадров : Постоянный
Частота кадров : 24,000 кадра/сек
Цветовое пространство : YUV
Субдискретизация насыщенности : 4:2:0
Битовая глубина : 8 бит
Тип развёртки : Прогрессивная
Бит/(Пиксели*Кадры) : 0.164
Размер потока : 1,12 Гбайт (88%)
Библиотека кодирования : x264 core 148 r2638 7599210
Настройки программы : cabac=1 / ref=9 / deblock=1:-3:-3 / analyse=0x3:0x133 / me=umh / subme=10 / psy=1 / psy_rd=1.00:0.00 / mixed_ref=1 / me_range=48 / chroma_me=1 / trellis=2 / 8x8dct=1 / cqm=0 / deadzone=21,11 / fast_pskip=0 / chroma_qp_offset=-2 / threads=18 / lookahead_threads=2 / sliced_threads=0 / nr=0 / decimate=0 / interlaced=0 / bluray_compat=0 / constrained_intra=0 / bframes=9 / b_pyramid=0 / b_adapt=2 / b_bias=0 / direct=3 / weightb=1 / open_gop=0 / weightp=2 / keyint=240 / keyint_min=24 / scenecut=40 / intra_refresh=0 / rc_lookahead=60 / rc=crf / mbtree=0 / crf=17.0 / qcomp=0.60 / qpmin=10 / qpmax=51 / qpstep=4 / vbv_maxrate=62500 / vbv_bufsize=78125 / crf_max=0.0 / nal_hrd=none / filler=0 / ip_ratio=1.40 / pb_ratio=1.30 / aq=3:0.70
Default : Да
Forced : Нет
Аудио
Идентификатор : 2
Формат : AC-3
Формат/Информация : Audio Coding 3
Расширение режима : CM (complete main)
Параметр Endianness формата : Big
Идентификатор кодека : A_AC3
Продолжительность : 49 м.
Вид битрейта : Постоянный
Битрейт : 384 Кбит/сек
Каналы : 6 каналов
Расположение каналов : Front: L C R, Side: L R, LFE
Частота : 48,0 КГц
Метод сжатия : С потерями
Задержка видео : 6 мс.
Размер потока : 137 Мбайт (10%)
Язык : English
Default : Нет
Forced : Нет
Внимание! Раздача ведётся путём добавления новых серий; при каждом добавлении создётся новый торрент. Чтобы начать докачку новой серии, пользователям необходимо сделать следующее:
Остановить скачивание.
Удалить старый торрент у себя из клиента (старые серии удалять не надо).
Скачать новый торрент и запустить его у себя в клиенте вместо старого, при этом указать клиенту путь в старую папку куда и должно происходить скачивание новых серий.
Ваш клиент при этом должен произвести хеширование (проверку) старой папки (если не производит сам - помогите ему сделать это), и будет докачивать только те серии которых у вас ещё нет. Старые серии при этом не удаляются, а продолжают раздаваться!
Eсли вы уже удалили старые серии, то предотвратить повторную закачку старых серий можно, отжав галочку в соответсвующих местах при запуске нового торрента. По возможности, желательно не удалять старые серии как можно дольше чтобы релизёр не столько продолжал раздавать старые серии, а смог сконцентрироваться на новых.
pb.wtf



Скачать Лемони Сникет: 33 несчастья через торрент http://i90.fastpic.ru/big/2017/0116/88/7b142713bb34015f489ba962df3fb388.jpg Скачать фильм Лемони Сникет: 33 несчастья через торрент бесплантно в хорошем качестве Описание: Трое детей семьи Бодлер — Вайолет, Клаус и Солнышко — после страшного пожара остаются сиротами и оказываются на попечении графа ... 6.4 10 5
Торрент: Зарегистрирован [2017-01-26 13:56] · скачан: 6 раз
Статус: √ проверено
Размер: 8.7 GB
Как cкачать? Как скачать Лемони Сникет: 33 несчастья через торрент | qTorrent



Последний раз редактировалось: killermax2013 (2017-01-26 13:56), всего редактировалось 1 раз

28-11-2019 20:33  

Отключить всю рекламу на сайте

19-01-2017 15:28 Лемони Сникет: 33 несчастья Скачать торрент  

+3-4pb.wtf



26-01-2017 13:57 Лемони Сникет: 33 несчастья Скачать торрент  

+5-7pb.wtf



    Дорогой пользователь! Огромная просьба, поблагодарите релизера, оцените раздачу и оставьте свои комментарий, если Вы скачали Лемони Сникет: 33 несчастья через торрент бесплатно! Внесите свою лепту в развитие PiratBit!
    Комментировать посты могут только пользователи прошедшие не сложную регистрацию
    Показать сообщения:    

    Лемони Сникет: 33 несчастья через торрент
    Скачать бесплатно Лемони Сникет: 33 несчастья
    Лемони Сникет: 33 несчастья скачать торрент
    Лемони Сникет: 33 несчастья смотреть онлайн
    Cкачать фильм Лемони Сникет: 33 несчастья бесплатно
    Лемони Сникет: 33 несчастья скачать торрент в хорошем качестве
    Лемони Сникет: 33 несчастья смотреть онлайн бесплатно в хорошем качестве


    Вы не можете начинать темы
    Вы не можете отвечать на сообщения
    Вы не можете редактировать свои сообщения
    Вы не можете удалять свои сообщения
    Вы не можете голосовать в опросах
    Вы не можете прикреплять файлы к сообщениям
    Вы можете скачивать файлы