новый адрес
Мега распродажа FORZA HORIZON 4 ULTIMATE+ВСЕ DLC+ОНЛАЙН всего за 499р. 349 руб. (супер цена). Внимание количество ограничено!!!

iTunes

1+1

iTunes

мы

iTunes

1

iTunes

Чернобыль

iTunes

Ральф против интернета

Лицензия

ПШазам

Лицензия

Игра престолов

Лицензия

30
pack

ВАЖНО

!!Акция!!

Alien_RageХит недели

RePack

Resident Evil 21

ИГРА 18+

pack

RePack

Metro:Exodus

!!Акция!!

Alien_Rage

RePack

fifa19

RePack

Assassins Creed: Odyssey

RePack

NEED FOR SPEED™ PAYBACK

3 сезон

9 сезон

Бесстыжие 9 сезон

Все сериалы

все сериалы на PB.wtf

RePack

FAR CRY 5
Ребята, катастрофически не хватает 1900р. для оплаты серверов за Октябрь (всвязи с блокировками трафик упал в 3 раза), 1-2р., выручайте.
  

Настанет день / Der kommer en dag (Йеспер В. Нильсен) [2016 г., драма, HDRip] DVO [SNK-TV] pb.wtf

Настанет день через торрент pb.wtf

Размер: 1.37 GB | Добавлен: 3 года 1 мес. назад | Торрент скачан:56 раз
Скачать  

26-09-2016 07:06 Настанет день Скачать торрент  

Настанет день / Der kommer en dag
Год выпуска: 2016

Страна: Дания
Жанр: драма
Продолжительность: 01:54:33
Перевод: Любительский (двухголосый) [SNK-TV]
Субтитры: отсутствуют

Режиссер: Йеспер В. Нильсен

rating

В ролях:

Ларс Миккельсен, Софи Гробёль, Харальд Кайсер Херманн, Альберт Рудбек Линдхардт, Лауридс Сковгор Андерсен, Ларс Ранте, Сёрен Сэттер-Лассен, Давид Денсик, Соня Рихтер, Сольбьорг Хёйфельдт

Описание:

События драмы «Настанет день» разворачиваются в 1967 году. Фильм рассказывает о двух неразлучных братьях — Эльмере и Эрике. Мальчики были отправлены в интернат Гудбьерг вскоре после того, как их одинокая мать серьезно заболела. Жизнь в интернате оказалась несладкой. У директора Хека свои диктаторские законы, а насилие и унижение являются обычным явлением. Ребята скоро понимают, что они потеряли свободу, и пытаются противостоять жестокому «правителю». В то же время дети задумывают бежать.

Фильм основан на реальных событиях и существовавшем в действительности интернате, где методы воспитания были настолько жестокими, что некоторые из бывших воспитанников подали иск на государство. В фильме показана не только мрачная и гнетущая история, но и рассказывается о надежде в светлое и прекрасное и o нерушимости душевных сил


Качество: HDRip
Формат: AVI
Видео кодек: XviD
Аудио кодек: AC3

Видео: 720x384 (1.88:1), 23.976 fps, XviD build 63 ~1513 kbps avg, 0.23 bit/pixel
Аудио#1: 48 kHz, AC3 Dolby Digital, 2/0 (L,R) ch, ~192 kbps
скриншот  скриншот  скриншот  скриншот  скриншот  скриншот  скриншот  
Общее
Полное имя : D:\Der.kommer.en.dag.2016.HDRip.avi
Формат : AVI
Формат/Информация : Audio Video Interleave
Размер файла : 1,37 Гбайт
Продолжительность : 1 ч. 54 м.
Общий поток : 1711 Кбит/сек
Программа кодирования : VirtualDubMod 1.5.10.2 (build 2540/release)
Библиотека кодирования : VirtualDubMod build 2540/release

Видео
Идентификатор : 0
Формат : xvid
Идентификатор кодека : xvid
Продолжительность : 1 ч. 54 м.
Битрейт : 1513 Кбит/сек
Ширина : 720 пикселей
Высота : 384 пикселя
Соотношение сторон : 1,85:1
Частота кадров : 23,976 (23976/1000) кадра/сек
Бит/(Пиксели*Кадры) : 0.228
Размер потока : 1,21 Гбайт (88%)

Аудио
Идентификатор : 1
Формат : AC-3
Формат/Информация : Audio Coding 3
Расширение режима : CM (complete main)
Параметр Endianness формата : Big
Идентификатор кодека : 2000
Продолжительность : 1 ч. 54 м.
Вид битрейта : Постоянный
Битрейт : 192 Кбит/сек
Каналы : 2 канала
Расположение каналов : Front: L R
Частота : 48,0 КГц
Частота кадров : 31,250 кадров/сек (1536 spf)
Битовая глубина : 16 бит
Метод сжатия : С потерями
Размер потока : 157 Мбайт (11%)
Выравнивание : Соединение по промежуткам
Продолжительность промежутка : 160 мс. (3,84 видеокадра)
Время предзагрузки промежутка : 640 мс.
pb.wtf



Скачать Настанет день через торрент http://pic1.kartinco.top/images/10/erhjq.jpg Скачать фильм Настанет день через торрент бесплантно в хорошем качестве Описание: События драмы «Настанет день» разворачиваются в 1967 году. Фильм рассказывает о двух неразлучных братьях — Эльмере и Эрике. ... 10 10 7
Торрент: Зарегистрирован [2016-09-26 07:06] · скачан: 56 раз
Статус: T временная
Размер: 1.37 GB
Как cкачать? Как скачать Настанет день через торрент | qTorrent



Последний раз редактировалось: bober100 (2016-10-01 05:39), всего редактировалось 1 раз


>> Регистрируемся здесь <<






Отзывы и комментарии о схеме читаем и пишем здесь: ---> Отзывы и комментарии о схеме

Новые благодарочки в телеграм довольных пользователей:
скриншот   скриншот   скриншот   скриншот   скриншот

29-09-2016 17:22 Настанет день Скачать торрент  

Спасибо! Обязательно посмотрю! Описание интригует...pb.wtf



    Дорогой пользователь! Огромная просьба, поблагодарите релизера, оцените раздачу и оставьте свои комментарий, если Вы скачали Настанет день через торрент бесплатно! Внесите свою лепту в развитие PiratBit!
    Комментировать посты могут только пользователи прошедшие не сложную регистрацию
    Показать сообщения:    

    Настанет день через торрент
    Скачать бесплатно Настанет день
    Настанет день скачать торрент
    Настанет день смотреть онлайн
    Cкачать фильм Настанет день бесплатно
    Настанет день скачать торрент в хорошем качестве
    Настанет день смотреть онлайн бесплатно в хорошем качестве


    Вы не можете начинать темы
    Вы не можете отвечать на сообщения
    Вы не можете редактировать свои сообщения
    Вы не можете удалять свои сообщения
    Вы не можете голосовать в опросах
    Вы не можете прикреплять файлы к сообщениям
    Вы можете скачивать файлы