новый адрес
Мега распродажа FORZA HORIZON 4 ULTIMATE+ВСЕ DLC+ОНЛАЙН всего за 499р. 349 руб. (супер цена). Внимание количество ограничено!!!

iTunes

1+1

iTunes

мы

iTunes

1

iTunes

Чернобыль

iTunes

Ральф против интернета

Лицензия

ПШазам

Лицензия

Игра престолов

Лицензия

30
pack

ВАЖНО

!!Акция!!

Alien_RageХит недели

RePack

Resident Evil 21

ИГРА 18+

pack

RePack

Metro:Exodus

!!Акция!!

Alien_Rage

RePack

fifa19

RePack

Assassins Creed: Odyssey

RePack

NEED FOR SPEED™ PAYBACK

3 сезон

9 сезон

Бесстыжие 9 сезон

Все сериалы

все сериалы на PB.wtf

RePack

FAR CRY 5
Ребята, катастрофически не хватает 1900р. для оплаты серверов за Октябрь (всвязи с блокировками трафик упал в 3 раза), 1-2р., выручайте.
  

Kingsman: Секретная служба / Kingsman: The Secret Service (Мэттью Вон ) [2015, боевик, комедия, криминал, UHDWEBRip 2160p] DUB [Лицензия] + 3x[AVO] pb.wtf

Kingsman: Секретная служба через торрент pb.wtf

Размер: 63.73 GB | Добавлен: 2 года 10 мес. назад | Торрент скачан:182 раза
Скачать  

17-01-2017 17:00 Kingsman: Секретная служба Скачать торрент  

Kingsman: Секретная службаKingsman: The Secret Service«Manners maketh man» Год выпуска: 2015
Страна: Великобритания, США
Жанр: боевик, комедия, криминал, приключения
Продолжительность: 02:08:43
Перевод: Дублированный, авторский
Субтитры: русские (forced), русские (full), украинские (forced), украинские (full), английские (forced), английские (full), английские (SDH), английские (SDH Colored)
Режиссер: Мэттью Вон
В ролях:
Тэрон Эджертон (Gary «Eggsy» Unwin), Колин Фёрт (Harry Hart / Galahad), Сэмюэл Л. Джексон (Valentine), Марк Стронг (Merlin), Софи Куксон (Roxy), Майкл Кейн (Arthur), София Бутелла (Gazelle), Саманта Янус (Michelle Unwin), Джофф Белл (Dean), Марк Хэмилл (Professor Arnold), Джек Девенпорт (Lancelot), Эдвард Холкрофт (Charlie)
Описание:
Эггси - молодой парень, который прошел службу в морской пехоте и имеет очень высокий уровень интеллекта. Он мог бы добиться многого, но выбрал другой путь и стал мелким преступником. Однажды он знакомится с Гарри Хартом, которому его отец когда-то спас жизнь. Этот человек решил сделать все возможное, чтобы сделать жизнь Эггси лучше и открыть для него новые возможности.
Рейтинг:

MPAA: R - Лицам до 17 лет обязательно присутствие взрослого
Качество: UHDWEBRip 2160p
Формат: MKV
Видео: V_MPEGH/ISO/HEVC, 3840x2160 (16:9), 70.9 Mb/s, 23,976 fps
Аудио №1: русский / DTS / 5.1 / 48 kHz / 768 kbps / 24 bit || Дубляж
Аудио №2: русский / DTS / 5.1 / 48 kHz / 1509 kbps / 24 bit || (Матвеев)
Аудио №3: русский / AC3 / 5.1 / 48 kHz / 640 kbps / || (Матвеев)
Аудио №4: русский / AC3 / 5.1 / 48 kHz / 640 kbps / || (Сербин)
Аудио №5: русский / AC3 / 5.1 / 48 kHz / 640 kbps / || (Володарский)
Аудио №6: украинский / AC3 / 5.1 / 48 kHz / 448 kbps /
Аудио №7: английский / DTS-HD / 48 kHz / 24 bit
Аудио №8: английский / AC3 / 5.1 / 48 kHz / 448 kbps /
Источник Lossless video capture of the UHD Blu-ray
Дороги прикручены Жукпродакшн
General
Unique ID : 221304591884349788838106134039947993857 (0xA67DB6CAEF6E41649A97E43F68856301)
Complete name : Kingsman.The.Secret.Service.2014.UltraHD.BluRay.2160p.HEVC.BT2020.Rus.Ukr.Eng.Zhukprodakshn.mkv
Format : Matroska
Format version : Version 2
File size : 63.7 GiB
Duration : 2 h 8 min
Overall bit rate : 70.9 Mb/s
Encoded date : UTC 2017-01-11 10:44:52
Writing application : mkvmerge v4.1.1 ('Bouncin' Back') збірка від Jul 3 2010 22:54:08
Writing library : libebml v1.0.0 + libmatroska v1.0.0

Video
ID : 1
Format : HEVC
Format/Info : High Efficiency Video Coding
Format profile : Main 10@L5.1@High
Codec ID : V_MPEGH/ISO/HEVC
Duration : 2 h 8 min
Width : 3 840 pixels
Height : 2 160 pixels
Display aspect ratio : 16:9
Frame rate mode : Constant
Frame rate : 23.976 (24000/1001) FPS
Color space : YUV
Chroma subsampling : 4:2:0
Bit depth : 10 bits
Writing library : x265 2.0+18-b0ec268aef60:[Windows][GCC 6.1.0][64 bit] 10bit
Encoding settings : wpp / ctu=64 / min-cu-size=8 / max-tu-size=32 / tu-intra-depth=1 / tu-inter-depth=1 / me=1 / subme=2 / merange=57 / no-rect / no-amp / max-merge=2 / temporal-mvp / no-early-skip / rskip / rdpenalty=0 / no-tskip / no-tskip-fast / strong-intra-smoothing / no-lossless / no-cu-lossless / no-constrained-intra / no-fast-intra / open-gop / no-temporal-layers / interlace=0 / keyint=250 / min-keyint=23 / scenecut=40 / rc-lookahead=20 / lookahead-slices=8 / bframes=4 / bframe-bias=0 / b-adapt=2 / ref=3 / limit-refs=3 / no-limit-modes / weightp / no-weightb / aq-mode=1 / qg-size=32 / aq-strength=1.00 / cbqpoffs=0 / crqpoffs=0 / rd=3 / psy-rd=2.00 / rdoq-level=0 / psy-rdoq=0.00 / log2-max-poc-lsb=8 / no-rd-refine / signhide / deblock=0:0 / sao / no-sao-non-deblock / b-pyramid / cutree / no-intra-refresh / rc=abr / bitrate=61000 / qcomp=0.60 / qpmin=0 / qpmax=69 / qpstep=4 / vbv-maxrate=160000 / vbv-bufsize=160000 / ipratio=1.40 / pbratio=1.30
Default : Yes
Forced : No
Color range : Limited
Color primaries : BT.2020
Transfer characteristics : SMPTE ST 2084
Matrix coefficients : BT.2020 non-constant
Mastering display color primaries : R: x=0.680000 y=0.320000, G: x=0.265000 y=0.690000, B: x=0.150000 y=0.060000, White point: x=0.312700 y=0.329000
Mastering display luminance : min: 0.0001 cd/m2, max: 1000.0000 cd/m2
Maximum Content Light Level : 1000 cd/m2
Maximum Frame-Average Light Level : 500 cd/m2

Audio #1
ID : 2
Format : DTS
Format/Info : Digital Theater Systems
Mode : 16
Format settings, Endianness : Big
Muxing mode : Header stripping
Codec ID : A_DTS
Duration : 2 h 8 min
Bit rate mode : Constant
Bit rate : 768 kb/s
Channel(s) : 6 channels
Channel positions : Front: L C R, Side: L R, LFE
Sampling rate : 48.0 kHz
Frame rate : 93.750 FPS (512 spf)
Bit depth : 24 bits
Compression mode : Lossy
Delay relative to video : 45 ms
Stream size : 707 MiB (1%)
Title : Дубляж
Language : Russian
Default : No
Forced : Yes

Audio #2
ID : 3
Format : DTS
Format/Info : Digital Theater Systems
Mode : 16
Format settings, Endianness : Big
Muxing mode : Header stripping
Codec ID : A_DTS
Duration : 2 h 8 min
Bit rate mode : Constant
Bit rate : 1 509 kb/s
Channel(s) : 6 channels
Channel positions : Front: L C R, Side: L R, LFE
Sampling rate : 48.0 kHz
Frame rate : 93.750 FPS (512 spf)
Bit depth : 24 bits
Compression mode : Lossy
Delay relative to video : 45 ms
Stream size : 1.36 GiB (2%)
Title : Матвеев
Language : Russian
Default : No
Forced : No

Audio #3
ID : 4
Format : AC-3
Format/Info : Audio Coding 3
Mode extension : CM (complete main)
Format settings, Endianness : Big
Muxing mode : Header stripping
Codec ID : A_AC3
Duration : 2 h 8 min
Bit rate mode : Constant
Bit rate : 640 kb/s
Channel(s) : 6 channels
Channel positions : Front: L C R, Side: L R, LFE
Sampling rate : 48.0 kHz
Frame rate : 31.250 FPS (1536 spf)
Compression mode : Lossy
Delay relative to video : 24 ms
Stream size : 589 MiB (1%)
Title : Матвеев
Language : Russian
Default : No
Forced : No

Audio #4
ID : 5
Format : AC-3
Format/Info : Audio Coding 3
Mode extension : CM (complete main)
Format settings, Endianness : Big
Muxing mode : Header stripping
Codec ID : A_AC3
Duration : 2 h 8 min
Bit rate mode : Constant
Bit rate : 640 kb/s
Channel(s) : 6 channels
Channel positions : Front: L C R, Side: L R, LFE
Sampling rate : 48.0 kHz
Frame rate : 31.250 FPS (1536 spf)
Compression mode : Lossy
Delay relative to video : 24 ms
Stream size : 589 MiB (1%)
Title : Сербин
Language : Russian
Default : No
Forced : No

Audio #5
ID : 6
Format : AC-3
Format/Info : Audio Coding 3
Mode extension : CM (complete main)
Format settings, Endianness : Big
Muxing mode : Header stripping
Codec ID : A_AC3
Duration : 2 h 8 min
Bit rate mode : Constant
Bit rate : 640 kb/s
Channel(s) : 6 channels
Channel positions : Front: L C R, Side: L R, LFE
Sampling rate : 48.0 kHz
Frame rate : 31.250 FPS (1536 spf)
Compression mode : Lossy
Delay relative to video : 24 ms
Stream size : 589 MiB (1%)
Title : Володарский
Language : Russian
Default : No
Forced : No

Audio #6
ID : 7
Format : AC-3
Format/Info : Audio Coding 3
Mode extension : CM (complete main)
Format settings, Endianness : Big
Muxing mode : Header stripping
Codec ID : A_AC3
Duration : 2 h 8 min
Bit rate mode : Constant
Bit rate : 448 kb/s
Channel(s) : 6 channels
Channel positions : Front: L C R, Side: L R, LFE
Sampling rate : 48.0 kHz
Frame rate : 31.250 FPS (1536 spf)
Compression mode : Lossy
Delay relative to video : 24 ms
Stream size : 412 MiB (1%)
Title : Дубляж
Language : Ukrainian
Default : No
Forced : No

Audio #7
ID : 8
Format : DTS
Format/Info : Digital Theater Systems
Format profile : MA / ES Matrix / Core
Mode : 16
Format settings, Endianness : Big
Muxing mode : Header stripping
Codec ID : A_DTS
Duration : 2 h 8 min
Bit rate mode : Variable / Constant / Constant
Bit rate : Unknown / 1 509 kb/s / 1 509 kb/s
Channel(s) : 8 channels / 7 channels / 6 channels
Channel positions : Front: L C R, Side: L R, Back: L R, LFE / Front: L C R, Side: L R, Back: C, LFE / Front: L C R, Side: L R, LFE
Sampling rate : 48.0 kHz
Frame rate : 93.750 FPS (512 spf)
Bit depth : 24 bits
Compression mode : Lossless / Lossy / Lossy
Delay relative to video : 2 ms
Language : English
Default : No
Forced : No
Statistics Tags Issue : mkvmerge v9.4.0 ('Knurl') 64bit 2016-11-26 00:16:54 / mkvmerge v4.1.1 ('Bouncin' Back') збірка від Jul 3 2010 22:54:08 2017-01-11 10:44:52
FromStats_BitRate : 4935591
FromStats_Duration : 02:08:43.030000000
FromStats_FrameCount : 724034
FromStats_StreamSize : 4764714848

Audio #8
ID : 9
Format : AC-3
Format/Info : Audio Coding 3
Mode extension : CM (complete main)
Format settings, Endianness : Big
Muxing mode : Header stripping
Codec ID : A_AC3
Duration : 2 h 8 min
Bit rate mode : Constant
Bit rate : 448 kb/s
Channel(s) : 6 channels
Channel positions : Front: L C R, Side: L R, LFE
Sampling rate : 48.0 kHz
Frame rate : 31.250 FPS (1536 spf)
Compression mode : Lossy
Delay relative to video : 2 ms
Stream size : 412 MiB (1%)
Language : English
Default : No
Forced : No
Statistics Tags Issue : mkvmerge v9.4.0 ('Knurl') 64bit 2016-11-26 00:16:54 / mkvmerge v4.1.1 ('Bouncin' Back') збірка від Jul 3 2010 22:54:08 2017-01-11 10:44:52
FromStats_BitRate : 448000
FromStats_Duration : 02:08:43.040000000
FromStats_FrameCount : 241345
FromStats_StreamSize : 432490240

Text #1
ID : 10
Format : UTF-8
Codec ID : S_TEXT/UTF8
Codec ID/Info : UTF-8 Plain Text
Title : forced
Language : Russian
Default : Yes
Forced : Yes

Text #2
ID : 11
Format : UTF-8
Codec ID : S_TEXT/UTF8
Codec ID/Info : UTF-8 Plain Text
Title : full
Language : Russian
Default : No
Forced : No

Text #3
ID : 12
Format : UTF-8
Codec ID : S_TEXT/UTF8
Codec ID/Info : UTF-8 Plain Text
Title : forced
Language : Ukrainian
Default : No
Forced : No

Text #4
ID : 13
Format : UTF-8
Codec ID : S_TEXT/UTF8
Codec ID/Info : UTF-8 Plain Text
Title : full
Language : Ukrainian
Default : No
Forced : No

Text #5
ID : 14
Format : UTF-8
Codec ID : S_TEXT/UTF8
Codec ID/Info : UTF-8 Plain Text
Title : forced
Language : English
Default : No
Forced : No

Text #6
ID : 15
Format : UTF-8
Codec ID : S_TEXT/UTF8
Codec ID/Info : UTF-8 Plain Text
Title : full
Language : English
Default : No
Forced : No

Text #7
ID : 16
Format : UTF-8
Codec ID : S_TEXT/UTF8
Codec ID/Info : UTF-8 Plain Text
Title : SDH
Language : English
Default : No
Forced : No

Text #8
ID : 17
Format : UTF-8
Codec ID : S_TEXT/UTF8
Codec ID/Info : UTF-8 Plain Text
Title : SDH Colored
Language : English
Default : No
Forced : No


Скриншотыскриншот   скриншот   скриншот   скриншот   скриншот   скриншот  pb.wtf



Скачать Kingsman: Секретная служба через торрент http://i91.fastpic.ru/big/2017/0117/6a/bba0c3d5f17cee9817a55030a1fe096a.png Скачать фильм Kingsman: Секретная служба через торрент бесплантно в хорошем качестве Описание: Эггси - молодой парень, который прошел службу в морской пехоте и имеет очень высокий уровень интеллекта. Он мог бы добиться ... 10 10 8
Info! Золотая раздача, скачанное не засчитывается.
Торрент: Зарегистрирован [2017-01-17 17:00] · скачан: 182 раз
Статус: √ проверено
Размер: 63.73 GB
Как cкачать? Как скачать Kingsman: Секретная служба через торрент | qTorrent

% Раздел Тема Автор DL S | L
Ultra HD (UHD: 2K, 4K, 8K) — видео сверхвысокой чёткости [ 48.44 GB ] Kingsman: Секретная служба / Kingsman: The Secret Service [2014 UHD BDRemux 2160p] DUB + 3x AVO + ENG + Subs Loc387 Скачать
1 | 0
Фильмы [HD 720p, 1080p] (Хороший звук DUB, MVO) [ 11.51 GB ] Kingsman: Секретная служба / Kingsman: The Secret Service [2014 BDRip 1080p от _denis_100 / NNNB] DUB 3xAVO + Original + Sub _denis_100 Скачать
2 | 0
Фильмы с авторской озвучкой [ 2.18 GB ] Kingsman: Секретная служба / Kingsman: The Secret Service [2014 BDRip-AVC] 2x[AVO] killermax2013 Скачать
1 | 0


>> Регистрируемся здесь <<






Отзывы и комментарии о схеме читаем и пишем здесь: ---> Отзывы и комментарии о схеме

Новые благодарочки в телеграм довольных пользователей:
скриншот   скриншот   скриншот   скриншот   скриншот
    Дорогой пользователь! Огромная просьба, поблагодарите релизера, оцените раздачу и оставьте свои комментарий, если Вы скачали Kingsman: Секретная служба через торрент бесплатно! Внесите свою лепту в развитие PiratBit!
    Комментировать посты могут только пользователи прошедшие не сложную регистрацию
    Показать сообщения:    

    Kingsman: Секретная служба через торрент
    Скачать бесплатно Kingsman: Секретная служба
    Kingsman: Секретная служба скачать торрент
    Kingsman: Секретная служба смотреть онлайн
    Cкачать фильм Kingsman: Секретная служба бесплатно
    Kingsman: Секретная служба скачать торрент в хорошем качестве
    Kingsman: Секретная служба смотреть онлайн бесплатно в хорошем качестве


    Вы не можете начинать темы
    Вы не можете отвечать на сообщения
    Вы не можете редактировать свои сообщения
    Вы не можете удалять свои сообщения
    Вы не можете голосовать в опросах
    Вы не можете прикреплять файлы к сообщениям
    Вы можете скачивать файлы