Ссылка на приватное зеркало нашего сайта всего за 1$. Внимание количество ограничено!!!

2 сезон

iTunes

1 сезон

1

iTunes

iTunes

iTunes

1 сезон

RePack

30

ИГРА 18+

pack

ВАЖНО

!!Акция!!

Alien_RageХит недели

RePack

MK11
pack

Забери бонус

RePack

jed

!!Акция!!

Alien_Rage

RePack

fifa19

RePack

Assassins Creed: Odyssey

RePack

NEED FOR SPEED™ PAYBACK

4 сезон

9 сезон

Бесстыжие 9 сезон

Все сериалы

все сериалы на PB.wtf

RePack

FAR CRY 5
  

Собака Баскервилей / The Hound of the Baskervilles (Дуглас Хикокс) [1983, ужасы, триллер, криминал, детектив, BDRip 1080p by msltel] DUB, AVO pb.wtf

Собака Баскервилей через торрент pb.wtf

Размер: 10.07 GB | Добавлен: 3 года 9 мес. назад | Торрент скачан:16 раз
Скачать  

18-01-2017 07:12 Собака Баскервилей Скачать торрент  

Название: Собака Баскервилей
Оригинальное название: The Hound of the Baskervilles
Год выпуска: 1983
Страна: Великобритания
Жанр: ужасы, триллер, криминал, детектив
Продолжительность: 01:40:18
Перевод: дублированный, авторский

Режиссёр: Дуглас Хикокс

В ролях: Иэн Ричардсон, Дональд Черчилль, Денхолм Эллиотт, Глайнис Барбер, Брайан Блессид, Элинор Брон, Эдвард Джадд, Рональд Лейси, Мартин Шоу, Конни Бут, Эрик Ричард, Майкл Баррелл, Синди О'Каллаган, Питер Разерфорд, Францеска Гоншащ, Дэвид Лэнгон, Николас Клэй

Описание: К Шерлоку Холмсу обращается доктор Джеймс Мортимер, сельский врач прихода Гримпен в английском графстве Девоншир. Его пациент, баронет сэр Чарльз Баскервиль, некоторое время назад умер при загадочных обстоятельствах. В роду Баскервилей, издавна живших в родовом поместье Баскервиль-Холл вблизи Гримпенской трясины, обширной сильно заболоченной местности, из поколения в поколение передаётся семейная легенда о призрачной собаке, которая преследует всех Баскервилей на болотах Гримпенской трясины по ночам. Согласно легенде, впервые призрак появился для того, чтобы покарать одного из Баскервилей — беспутного Хьюго, жившего в XVII веке, и с тех пор он периодически напоминает о себе загадочными смертями представителей рода Баскервилей...



Качество: BDRip 1080p
Формат: MKV
Видео: MPEG-4 AVC, 13.8 Mбит/с, 1920x1080, 23,976 кадра/с
Аудио 1: русский, AC3, 192 kbps, 1 ch, 48 kHz [дублированный, Ленфильм]
Аудио 2: русский, AC3, 192 kbps, 1 ch, 48 kHz [авторский, Антон Алексеев]
Аудио 3: английский, AC3, 192 kbps, 2 ch, 48 kHz [оригинал]
Субтитры: английские (для слабослышащих)
Имеются неименованные главы/чаптеры.
Общее
Уникальный идентификатор : 233272124443383114475520026926582410480 (0xAF7E93B4050FBE9C811421C119612CF0)
Полное имя : D:\Video\Собака Баскервилей.1983.BDRip.1080p by msltel.mkv
Формат : Matroska
Версия формата : Version 4 / Version 2
Размер файла : 10,1 Гбайт
Продолжительность : 1 ч. 40 м.
Общий поток : 14,4 Мбит/сек
Название фильма : Rip by msltel
Дата кодирования : UTC 2017-01-18 05:16:02
Программа кодирования : mkvmerge v8.2.0 ('World of Adventure') 64bit
Библиотека кодирования : libebml v1.3.1 + libmatroska v1.4.2

Видео
Идентификатор : 1
Формат : AVC
Формат/Информация : Advanced Video Codec
Профиль формата : High@L4.1
Параметр CABAC формата : Да
Параметр ReFrames формата : 4 кадра
Идентификатор кодека : V_MPEG4/ISO/AVC
Продолжительность : 1 ч. 40 м.
Битрейт : 13,8 Мбит/сек
Ширина : 1920 пикселей
Высота : 1080 пикселей
Соотношение сторон : 16:9
Режим частоты кадров : Постоянный
Частота кадров : 23,976 (24000/1001) кадра/сек
Цветовое пространство : YUV
Субдискретизация насыщенности : 4:2:0
Битовая глубина : 8 бит
Тип развёртки : Прогрессивная
Бит/(Пиксели*Кадры) : 0.277
Размер потока : 9,66 Гбайт (96%)
Библиотека кодирования : x264 core 146 r2538 121396c
Настройки программы : cabac=1 / ref=4 / deblock=1:-3:-2 / analyse=0x3:0x113 / me=umh / subme=11 / psy=1 / psy_rd=1.00:0.15 / mixed_ref=1 / me_range=32 / chroma_me=1 / trellis=2 / 8x8dct=1 / cqm=0 / deadzone=21,11 / fast_pskip=0 / chroma_qp_offset=-3 / threads=6 / lookahead_threads=1 / sliced_threads=0 / nr=0 / decimate=1 / interlaced=0 / bluray_compat=0 / constrained_intra=0 / bframes=8 / b_pyramid=2 / b_adapt=2 / b_bias=0 / direct=1 / weightb=1 / open_gop=0 / weightp=2 / keyint=230 / keyint_min=23 / scenecut=40 / intra_refresh=0 / rc_lookahead=40 / rc=crf / mbtree=0 / crf=18.3 / qcomp=0.60 / qpmin=0 / qpmax=69 / qpstep=4 / vbv_maxrate=62500 / vbv_bufsize=78125 / crf_max=0.0 / nal_hrd=none / filler=0 / ip_ratio=1.40 / pb_ratio=1.30 / aq=1:1.00
Язык : English
Default : Да
Forced : Нет

Аудио #1
Идентификатор : 2
Формат : AC-3
Формат/Информация : Audio Coding 3
Расширение режима : CM (complete main)
Параметр Endianness формата : Big
Идентификатор кодека : A_AC3
Продолжительность : 1 ч. 40 м.
Вид битрейта : Постоянный
Битрейт : 192 Кбит/сек
Каналы : 1 канал
Расположение каналов : Front: C
Частота : 48,0 КГц
Частота кадров : 31,250 кадров/сек (1536 spf)
Метод сжатия : С потерями
Размер потока : 138 Мбайт (1%)
Заголовок : DUB (Ленфильм)
Язык : Russian
Default : Да
Forced : Нет

Аудио #2
Идентификатор : 3
Формат : AC-3
Формат/Информация : Audio Coding 3
Расширение режима : CM (complete main)
Параметр Endianness формата : Big
Идентификатор кодека : A_AC3
Продолжительность : 1 ч. 40 м.
Вид битрейта : Постоянный
Битрейт : 192 Кбит/сек
Каналы : 1 канал
Расположение каналов : Front: C
Частота : 48,0 КГц
Частота кадров : 31,250 кадров/сек (1536 spf)
Метод сжатия : С потерями
Размер потока : 138 Мбайт (1%)
Заголовок : AVO (Антон Алексеев)
Язык : Russian
Default : Нет
Forced : Нет

Аудио #3
Идентификатор : 4
Формат : AC-3
Формат/Информация : Audio Coding 3
Расширение режима : CM (complete main)
Параметр Endianness формата : Big
Идентификатор кодека : A_AC3
Продолжительность : 1 ч. 40 м.
Вид битрейта : Постоянный
Битрейт : 192 Кбит/сек
Каналы : 2 канала
Расположение каналов : Front: L R
Частота : 48,0 КГц
Частота кадров : 31,250 кадров/сек (1536 spf)
Метод сжатия : С потерями
Размер потока : 138 Мбайт (1%)
Заголовок : original
Язык : English
Default : Нет
Forced : Нет

Текст
Идентификатор : 5
Формат : UTF-8
Идентификатор кодека : S_TEXT/UTF8
Идентификатор кодека/Информация : UTF-8 Plain Text
Продолжительность : 1 ч. 37 м.
Битрейт : 59 бит/сек
Count of elements : 1423
Размер потока : 42,5 Кбайт (0%)
Заголовок : английские (для слабослышащих)
Язык : English
Default : Нет
Forced : Нет

Меню
00:00:00.000 : :Chapter 01
00:05:11.601 : :Chapter 02
00:12:36.046 : :Chapter 03
00:17:39.767 : :Chapter 04
00:24:52.614 : :Chapter 05
00:31:41.106 : :Chapter 06
00:36:49.581 : :Chapter 07
00:43:56.884 : :Chapter 08
00:49:35.847 : :Chapter 09
00:57:12.554 : :Chapter 10
01:01:38.068 : :Chapter 11
01:08:56.756 : :Chapter 12
01:16:26.747 : :Chapter 13
01:21:49.320 : :Chapter 14
01:28:33.224 : :Chapter 15
01:34:43.219 : :Chapter 16
01:38:05.337 : :Chapter 17
01:40:18.595 : :Chapter 18
pb.wtf



Скачать Собака Баскервилей через торрент http://s018.radikal.ru/i526/1701/b6/a30379d69565.jpg Скачать фильм Собака Баскервилей через торрент бесплантно в хорошем качестве Описание: К Шерлоку Холмсу обращается доктор Джеймс Мортимер, сельский врач прихода Гримпен в английском графстве Девоншир. Его пациент, ... 7.8 10 4
Info! Золотая раздача, скачанное не засчитывается.
Торрент: Зарегистрирован [2017-01-18 07:12] · скачан: 16 раз
Статус: √ проверено
Размер: 10.07 GB
Как cкачать? Как скачать Собака Баскервилей через торрент | qTorrent

% Раздел Тема Автор DL S | L
Фильмы [HD 720p, 1080p] (Хороший звук DUB, MVO) [ 4.27 GB ] Собака Баскервилей / The Hound of the Baskervilles [1983 BDRip 720p by msltel] DUB AVO msltel Скачать
1 | 0
Фильмы до 2000 г. [ 1.45 GB ] Собака Баскервилей / The Hound of the Baskervilles [1983 BDRip] DUB AVO koenig Скачать
1 | 0

28-11-2019 20:33  

Отключить всю рекламу на сайте

20-01-2017 13:49 Собака Баскервилей Скачать торрент  

Ливанов признан лучшим Шерлоком! А эта зарубежная шняга - не катит...pb.wtf



    Дорогой пользователь! Огромная просьба, поблагодарите релизера, оцените раздачу и оставьте свои комментарий, если Вы скачали Собака Баскервилей через торрент бесплатно! Внесите свою лепту в развитие PiratBit!
    Комментировать посты могут только пользователи прошедшие не сложную регистрацию
    Показать сообщения:    

    Собака Баскервилей через торрент
    Скачать бесплатно Собака Баскервилей
    Собака Баскервилей скачать торрент
    Собака Баскервилей смотреть онлайн
    Cкачать фильм Собака Баскервилей бесплатно
    Собака Баскервилей скачать торрент в хорошем качестве
    Собака Баскервилей смотреть онлайн бесплатно в хорошем качестве


    Вы не можете начинать темы
    Вы не можете отвечать на сообщения
    Вы не можете редактировать свои сообщения
    Вы не можете удалять свои сообщения
    Вы не можете голосовать в опросах
    Вы не можете прикреплять файлы к сообщениям
    Вы можете скачивать файлы