Ссылка на приватное зеркало нашего сайта всего за 1$. Внимание количество ограничено!!!

2 сезон

iTunes

1 сезон

1

2 сезон

2 сезон

iTunes

1 сезон

RePack

30

Ultimate

ВАЖНО

ИГРА 18+

pack

RePack

MK11
pack

Забери бонус

RePack

jed

!!Акция!!

Alien_Rage

RePack

fifa19

RePack

Assassins Creed: Odyssey

RePack

NEED FOR SPEED™ PAYBACK

4 сезон

9 сезон

Бесстыжие 9 сезон

Все сериалы

все сериалы на PB.wtf

RePack

FAR CRY 5
  

Лемони Сникет: 33 несчастья / A Series of Unfortunate Events / Сезон: 1 / Серии 1-8 из 8 (Бэрри Зонненфельд, Марк Палански, Бо Уэлш) [2017, Драма, приключения, семейный, WEBRip] [MVO] (AlexFilm) pb.wtf

Лемони Сникет: 33 несчастья через торрент pb.wtf

Размер: 4.53 GB | Добавлен: 3 года 9 мес. назад | Торрент скачан:139 раз
Скачать  

18-01-2017 08:31 Лемони Сникет: 33 несчастья Скачать торрент  


Лемони Сникет: 33 несчастья / A Series of Unfortunate Events

Год выпуска: 2017
Страна: США
Жанр: драма, приключения, семейный
Продолжительность: ~ 00:43:00
Озвучание: Профессиональное (многоголосое закадровое) (AlexFilm)

Режиссеры: Бэрри Зонненфельд, Марк Палански, Бо Уэлш

В ролях: Нил Патрик Харрис, Усман Элли, Мэттью Кардаропле, Джон ДеСантис, Луи Хайнс, Малина Вайсман, Сара Каннинг, Патрик Китинг, Кэтрин О’Хара, Элфри Вудард и другие

Описание: Трое детей семьи Бодлер — Вайолет, Клаус и Солнышко — после страшного пожара остаются сиротами и оказываются на попечении графа Олафа, который всеми силами хочет захватить наследство детей. Дети всячески пытаются объяснить всем вокруг, что граф Олаф не просто плохой опекун, но и ещё пытается убить их, чтобы разбогатеть; разумеется, никто детей не слушает. И только из-за непонимания взрослых сироты попадают в разные злоключения.
Релиз:
Перевод: Константин Кривоногов
Монтаж и сведение звука: Михаил Шорыгин
Роли озвучивали:Маргарита Корш
Екатерина Муравицкая
Роман Сопко
Артём Бахитн
Михаил Суслов
Михаил Шорыгин



Качество: WEBRip
Формат: AVI
Видео: 720x360, 24 fps, XviD ~1400 kbps avg, 0.20 bit/pixel
Аудио Rus: 48 kHz, MPEG Layer 3, 2 ch, ~128.00 kbps avg
Аудио Eng: 48 kHz, MPEG Layer 3, 2 ch, ~128.00 kbps avg
Субтитры: нет
Формат : AVI
Формат/Информация : Audio Video Interleave
Размер файла : 585 Мбайт
Продолжительность : 48 м. 55 с.
Общий поток : 1673 Кбит/сек
Название фильма : A Series of Unfortunate Events 1x01 @ AlexFilm
Программа кодирования : VirtualDubMod 1.5.10.2 (build 2540/release)
Библиотека кодирования : VirtualDubMod build 2540/release
Видео
Идентификатор : 0
Формат : MPEG-4 Visual
Профиль формата : Advanced Simple@L5
Параметр BVOP формата : Нет
Параметр QPel формата : Нет
Параметр GMC формата : Без точки перехода
Параметр матрицы формата : Default (MPEG)
Идентификатор кодека : XVID
Идентификатор кодека/Подсказка : XviD
Продолжительность : 48 м. 55 с.
Битрейт : 1403 Кбит/сек
Ширина : 720 пикселей
Высота : 360 пикселей
Соотношение сторон : 2,000
Частота кадров : 24,000 кадра/сек
Цветовое пространство : YUV
Субдискретизация насыщенности : 4:2:0
Битовая глубина : 8 бит
Тип развёртки : Прогрессивная
Метод сжатия : С потерями
Бит/(Пиксели*Кадры) : 0.226
Размер потока : 491 Мбайт (84%)
Библиотека кодирования : XviD 73
Аудио #1
Идентификатор : 1
Формат : MPEG Audio
Версия формата : Version 1
Профиль формата : Layer 3
Режим : Joint stereo
Расширение режима : MS Stereo
Идентификатор кодека : 55
Идентификатор кодека/Подсказка : MP3
Продолжительность : 48 м. 55 с.
Вид битрейта : Постоянный
Битрейт : 128 Кбит/сек
Каналы : 2 канала
Частота : 48,0 КГц
Метод сжатия : С потерями
Размер потока : 44,8 Мбайт (8%)
Выравнивание : Соединение по промежуткам
Продолжительность промежутка : 42 мс. (1,00 видеокадр)
Время предзагрузки промежутка : 504 мс.
Заголовок : Russian (AlexFilm)
Библиотека кодирования : LAME3.99r
Настройки программы : -m j -V 4 -q 3 -lowpass 18 -b 128
Аудио #2
Идентификатор : 2
Формат : MPEG Audio
Версия формата : Version 1
Профиль формата : Layer 3
Режим : Joint stereo
Расширение режима : MS Stereo
Идентификатор кодека : 55
Идентификатор кодека/Подсказка : MP3
Продолжительность : 48 м. 55 с.
Вид битрейта : Постоянный
Битрейт : 128 Кбит/сек
Каналы : 2 канала
Частота : 48,0 КГц
Метод сжатия : С потерями
Размер потока : 44,8 Мбайт (8%)
Выравнивание : Соединение по промежуткам
Продолжительность промежутка : 42 мс. (1,00 видеокадр)
Время предзагрузки промежутка : 504 мс.
Заголовок : English
Библиотека кодирования : LAME3.90.3
Внимание! Раздача ведётся путём добавления новых серий; при каждом добавлении создаётся новый торрент. Чтобы начать докачку новой серии, пользователям необходимо сделать следующее:
(1) остановить скачивание,
(2) удалить старый торрент у себя из клиента (старые серии удалять не надо),
(3) скачать новый торрент и запустить его у себя в клиенте вместо старого, при этом указать клиенту путь в старую папку куда и должно происходить скачивание новых серий.
Ваш клиент при этом должен произвести хеширование (проверку) старой папки (если не производит сам - помогите ему сделать это), и будет докачивать только те серии которых у вас ещё нет. Старые серии при этом не удаляются, а продолжают раздаваться!
Eсли вы уже удалили старые серии, то предотвратить повторную закачку старых серий можно, отжав галочку в соответствующих местах при запуске нового торрента. По возможности, желательно не удалять старые серии как можно дольше чтобы релизёр не столько продолжал раздавать старые серии, а смог сконцентрироваться на новых.
pb.wtf



Скачать Лемони Сникет: 33 несчастья через торрент http://i91.fastpic.ru/big/2017/0116/15/4fe70f7fb2ccc8c8431c14bc9447af15.jpg Скачать фильм Лемони Сникет: 33 несчастья через торрент бесплантно в хорошем качестве Описание: Трое детей семьи Бодлер — Вайолет, Клаус и Солнышко — после страшного пожара остаются сиротами и оказываются на попечении графа ... 8.2 10 13
Торрент: Зарегистрирован [2017-01-28 10:13] · скачан: 139 раз
Статус: √ проверено
Размер: 4.53 GB
Как cкачать? Как скачать Лемони Сникет: 33 несчастья через торрент | qTorrent

% Раздел Тема Автор DL S | L
Зарубежные сериалы [ 36.1 GB ] Лемони Сникет: 33 несчастья / A Series of Unfortunate Events / Сезон: 1 / Серии 1-8 из 8 [2017 WEBRip 1080p] 3x[MVO] killermax2013 Скачать
1 | 0
Зарубежные сериалы [ 5.97 GB ] Лемони Сникет: 33 несчастья / A Series of Unfortunate Events / Сезон 1 / Серии 1-8 из 8 [2017 WEBRip] MVO [LostFilm] bober100 Скачать
1 | 0
Зарубежные сериалы [ 11.06 GB ] Лемони Сникет: 33 несчастья / A Series of Unfortunate Events / Сезон: 1 / Серии 1-8 из 8 [2017 WEBRip 720p] [MVO] killermax2013 Скачать
1 | 0
Зарубежные сериалы [ 8.7 GB ] Лемони Сникет: 33 несчастья / A Series of Unfortunate Events/ Сезон: 1 / Серии 1-7 из 8 [2017 WEBRip 720p] [Sub Rus] killermax2013 Скачать
1 | 0
Зарубежные сериалы [ 5.13 GB ] Лемони Сникет: 33 несчастья / A Series of Unfortunate Events/ Сезон: 1 / Серии 1-8 из 8 [2017 WEBRip] [MVO] killermax2013 Скачать
1 | 0
Зарубежные сериалы [ 11.69 GB ] Лемони Сникет: 33 несчастья / A Series of Unfortunate Events/ Сезон: 1 / Серии 1-8 из 8 [2017 WEBRip 720p] [MVO] killermax2013 Скачать
1 | 0
Зарубежные сериалы [ 4.67 GB ] Лемони Сникет: 33 несчастья / A Series of Unfortunate Events/ Сезон: 1 / Серии 1-8 из 8 [2017 WEBRip] [MVO] killermax2013 Скачать
1 | 0


Последний раз редактировалось: killermax2013 (2017-01-28 10:13), всего редактировалось 4 раз(а)

28-11-2019 20:33  

Отключить всю рекламу на сайте

18-01-2017 13:02 Лемони Сникет: 33 несчастья Скачать торрент  

Полный метр в сое время с Джимом Керри был очень хорош! Заценим сериал pb.wtf



19-01-2017 09:19 Лемони Сникет: 33 несчастья Скачать торрент  

+3pb.wtf



19-01-2017 09:53 Лемони Сникет: 33 несчастья Скачать торрент  

JoraPoker писал(а):

Полный метр в сое время с Джимом Керри был очень хорош! Заценим сериал

сериал уже продлен на второй сезонpb.wtf



21-01-2017 19:07 Лемони Сникет: 33 несчастья Скачать торрент  

+4pb.wtf



26-01-2017 14:00 Лемони Сникет: 33 несчастья Скачать торрент  

+6pb.wtf



28-01-2017 10:14 Лемони Сникет: 33 несчастья Скачать торрент  

+7-8pb.wtf



28-01-2017 10:19 Лемони Сникет: 33 несчастья Скачать торрент  

Физрук на последнем скрине)pb.wtf



    Дорогой пользователь! Огромная просьба, поблагодарите релизера, оцените раздачу и оставьте свои комментарий, если Вы скачали Лемони Сникет: 33 несчастья через торрент бесплатно! Внесите свою лепту в развитие PiratBit!
    Комментировать посты могут только пользователи прошедшие не сложную регистрацию
    Показать сообщения:    

    Лемони Сникет: 33 несчастья через торрент
    Скачать бесплатно Лемони Сникет: 33 несчастья
    Лемони Сникет: 33 несчастья скачать торрент
    Лемони Сникет: 33 несчастья смотреть онлайн
    Cкачать фильм Лемони Сникет: 33 несчастья бесплатно
    Лемони Сникет: 33 несчастья скачать торрент в хорошем качестве
    Лемони Сникет: 33 несчастья смотреть онлайн бесплатно в хорошем качестве


    Вы не можете начинать темы
    Вы не можете отвечать на сообщения
    Вы не можете редактировать свои сообщения
    Вы не можете удалять свои сообщения
    Вы не можете голосовать в опросах
    Вы не можете прикреплять файлы к сообщениям
    Вы можете скачивать файлы