новый адрес
Ссылка на приватное зеркало всего за 1$. Внимание количество ограничено!!!

iTunes

1+1

iTunes

мы

iTunes

1

iTunes

Чернобыль

iTunes

Ральф против интернета

Лицензия

ПШазам

Лицензия

Оно 2

Лицензия

30
pack

Вам бонус

ВАЖНО

!!Акция!!

Alien_RageХит недели

RePack

Resident Evil 21

ИГРА 18+

pack

RePack

jed

!!Акция!!

Alien_Rage

RePack

fifa19

RePack

Assassins Creed: Odyssey

RePack

NEED FOR SPEED™ PAYBACK

3 сезон

9 сезон

Бесстыжие 9 сезон

Все сериалы

все сериалы на PB.wtf

RePack

FAR CRY 5
Ребята, катастрофически не хватает 1900р. для оплаты серверов за Октябрь (всвязи с блокировками трафик упал в 3 раза), 1-2р., выручайте.
  

Взять живым (Вадим Лысенко) [1982, СССР, военный, DVDRip от AVP Studio] pb.wtf

Взять живым через торрент pb.wtf

Размер: 2.91 GB | Добавлен: 2 года 10 мес. назад | Торрент скачан:17 раз
Скачать  

19-01-2017 09:56 Взять живым Скачать торрент  

Взять живым
Страна: СССР
Производство: Одесская киностудия

Жанр: военный
Год выпуска: 1982
Продолжительность: 03:21:34 ( 01:07:09 + 01:08:03 + 01:06:22)

Перевод: Не требуется
Cубтитры: нет
Оригинальная аудиодорожка: русский

Режиссер: Вадим Лысенко

В ролях:
Фёдор Сухов, Александр Потапов, Игорь Ефимов, Юрий Соловьёв, Леонид Неведомский, Георгий Назаренко, Александр Игнатуша, Сергей Маковецкий, Александр Беспалый, Анатолий Юрченко, Виктор Павлов, Владимир Зайцев, Владимир Шакало, Валерий Зайцев (II), Леонид Муратов, Никита Лысенко, Виктор Бычков, Александр Жданов, Елена Козелькова, Елизавета Суржикова, Александр Леньков, Ирина Зеленко, Евгений Соляков...
Об актёрах подробней

Описание:
Экранизация одноименного романа Владимира Карпова. О судьбе солдата Василия Ромашкина, вчерашнего десятиклассника, прошедшего через все испытания Великой Отечественной войны и закончившего боевой путь офицером разведки.

Источник: DVD9 R5
Качество видео: DVDRip
Формат видео: AVI

Видео: 688x512 (4:3), 25 fps, XviD ~ 1862 kbps avg, 0.211 bit/pixel
Аудио: 48 kHz, Dolby Digital AC3 2.0, 192 kbps

Раздача от:
Общее
Полное имя : Vzyat.zhivym.1982.DVDRip_[New-team]_by_AVP_Studio\01.avi
Формат : AVI
Формат/Информация : Audio Video Interleave
Размер файла : 991 Мбайт
Продолжительность : 1 ч. 7 м.
Общий поток : 2064 Кбит/сек
Программа кодирования : VirtualDubMod 1.5.10.3 | www.virtualdub-fr.org || (build 2550/release)
Библиотека кодирования : VirtualDubMod build 2550/release

Видео
Идентификатор : 0
Формат : MPEG-4 Visual
Профиль формата : Advanced Simple@L5
Параметр BVOP формата : 1
Параметр QPel формата : Нет
Параметр GMC формата : Без точки перехода
Параметр матрицы формата : Выборочная
Идентификатор кодека : XVID
Идентификатор кодека/Подсказка : XviD
Продолжительность : 1 ч. 7 м.
Битрейт : 1862 Кбит/сек
Ширина : 688 пикселей
Высота : 512 пикселей
Соотношение сторон : 4:3
Частота кадров : 25,000 кадров/сек
Цветовое пространство : YUV
Субдискретизация насыщенности : 4:2:0
Битовая глубина : 8 бит
Тип развёртки : Прогрессивная
Метод сжатия : С потерями
Бит/(Пиксели*Кадры) : 0.211
Размер потока : 894 Мбайт (90%)
Библиотека кодирования : XviD 73

Аудио
Идентификатор : 1
Формат : AC-3
Формат/Информация : Audio Coding 3
Расширение режима : CM (complete main)
Параметр Endianness формата : Big
Идентификатор кодека : 2000
Продолжительность : 1 ч. 7 м.
Вид битрейта : Постоянный
Битрейт : 192 Кбит/сек
Каналы : 2 канала
Расположение каналов : Front: L R
Частота : 48,0 КГц
Частота кадров : 31,250 кадров/сек (1536 spf)
Битовая глубина : 16 бит
Метод сжатия : С потерями
Размер потока : 92,2 Мбайт (9%)
Выравнивание : Разделение по промежуткам
Продолжительность промежутка : 40 мс. (1,00 видеокадр)
Время предзагрузки промежутка : 500 мс
pb.wtf



Скачать Взять живым через торрент http://s020.radikal.ru/i701/1701/8d/c546d40948b9.png Скачать фильм Взять живым через торрент бесплантно в хорошем качестве Описание:Экранизация одноименного романа Владимира Карпова. О судьбе солдата Василия Ромашкина, вчерашнего десятиклассника, прошедшего ... 10 10 1
Info! Золотая раздача, скачанное не засчитывается.
Торрент: Зарегистрирован [2017-01-19 09:56] · скачан: 17 раз
Статус: √ проверено
Размер: 2.91 GB
Как cкачать? Как скачать Взять живым через торрент | qTorrent

% Раздел Тема Автор DL S | L
Кино СССР [ 2.91 GB ] Взять живым [1982 СССР военный DVDRip-AVC от AVP Studio] AVP Studio Скачать
1 | 0
Кино СССР [ 1.46 GB ] Взять живым [1982 СССР военный DVDRip от AVP Studio] AVP Studio Скачать
1 | 0
Наши сериалы [ 2.18 GB ] Взять живым [1982 военный DVDRip] vasilich619 Скачать
1 | 1
    Дорогой пользователь! Огромная просьба, поблагодарите релизера, оцените раздачу и оставьте свои комментарий, если Вы скачали Взять живым через торрент бесплатно! Внесите свою лепту в развитие PiratBit!
    Комментировать посты могут только пользователи прошедшие не сложную регистрацию
    Показать сообщения:    

    Взять живым через торрент
    Скачать бесплатно Взять живым
    Взять живым скачать торрент
    Взять живым смотреть онлайн
    Cкачать фильм Взять живым бесплатно
    Взять живым скачать торрент в хорошем качестве
    Взять живым смотреть онлайн бесплатно в хорошем качестве


    Вы не можете начинать темы
    Вы не можете отвечать на сообщения
    Вы не можете редактировать свои сообщения
    Вы не можете удалять свои сообщения
    Вы не можете голосовать в опросах
    Вы не можете прикреплять файлы к сообщениям
    Вы можете скачивать файлы