новый адрес пиратбит piratbit
Мега распродажа FORZA HORIZON 4 ULTIMATE+ВСЕ DLC+ОНЛАЙН всего за 499р. 349 руб. (супер цена). Внимание количество ограничено!!!

iTunes

1+1

iTunes

мы

iTunes

1

iTunes

Чернобыль

iTunes

Ральф против интернета

Лицензия

ПШазам

Лицензия

Игра престолов

Лицензия

30
pack

ВАЖНО

!!Акция!!

Alien_RageХит недели

RePack

Resident Evil 21

ИГРА 18+

pack

RePack

Metro:Exodus

!!Акция!!

Alien_Rage

RePack

fifa19

RePack

Assassins Creed: Odyssey

RePack

NEED FOR SPEED™ PAYBACK

3 сезон

9 сезон

Бесстыжие 9 сезон

Все сериалы

все сериалы на PB.wtf

RePack

FAR CRY 5
Ребята, катастрофически не хватает 1900р. для оплаты серверов за Октябрь (всвязи с блокировками трафик упал в 3 раза), 1-2р., выручайте.
  

Взять живым (Вадим Лысенко) [1982, СССР, военный, DVDRip-AVC от AVP Studio] pb.wtf

Взять живым через торрент pb.wtf

Размер: 2.91 GB | Добавлен: 2 года 9 мес. назад | Торрент скачан:37 раз
Скачать  

19-01-2017 09:58 Взять живым Скачать торрент  

Взять живым
Страна: СССР
Производство: Одесская киностудия

Жанр: военный
Год выпуска: 1982
Продолжительность: 03:21:34 ( 01:07:09 + 01:08:03 + 01:06:22)

Перевод: Не требуется
Cубтитры: нет
Оригинальная аудиодорожка: русский

Режиссер: Вадим Лысенко

В ролях:
Фёдор Сухов, Александр Потапов, Игорь Ефимов, Юрий Соловьёв, Леонид Неведомский, Георгий Назаренко, Александр Игнатуша, Сергей Маковецкий, Александр Беспалый, Анатолий Юрченко, Виктор Павлов, Владимир Зайцев, Владимир Шакало, Валерий Зайцев (II), Леонид Муратов, Никита Лысенко, Виктор Бычков, Александр Жданов, Елена Козелькова, Елизавета Суржикова, Александр Леньков, Ирина Зеленко, Евгений Соляков...
Об актёрах подробней

Описание:
Экранизация одноименного романа Владимира Карпова. О судьбе солдата Василия Ромашкина, вчерашнего десятиклассника, прошедшего через все испытания Великой Отечественной войны и закончившего боевой путь офицером разведки.

Источник: DVD9 R5
Качество видео: DVDRip-AVC
Формат видео: MKV

Видео: 696->762x572 (4:3), 25 fps, H264 ~ 1871 kbps avg, 0.188 bit/pixel
Аудио: 48 kHz, Dolby Digital AC3 2.0, 192 kbps

Раздача от:
Общее
Полное имя : Vzyat.zhivym.1982.DVDRip-AVC_[New-team]_by_AVP_Studio\01.mkv
Формат : Matroska
Версия формата : Version 2
Размер файла : 992 Мбайт
Продолжительность : 1 ч. 7 м.
Общий поток : 2065 Кбит/сек
Дата кодирования : UTC 2017-01-19 02:06:56
Программа кодирования : mkvmerge v6.1.0 ('Old Devil') built on Mar 4 2013 09:10:42
Библиотека кодирования : libebml v1.3.0 + libmatroska v1.4.0

Видео
Идентификатор : 1
Формат : AVC
Формат/Информация : Advanced Video Codec
Профиль формата : High@L4.1
Параметр CABAC формата : Да
Параметр ReFrames формата : 10 кадров
Идентификатор кодека : V_MPEG4/ISO/AVC
Продолжительность : 1 ч. 7 м.
Битрейт : 1871 Кбит/сек
Ширина : 696 пикселей
Высота : 572 пикселя
Соотношение сторон : 4:3
Режим частоты кадров : Постоянный
Частота кадров : 25,000 кадров/сек
Цветовое пространство : YUV
Субдискретизация насыщенности : 4:2:0
Битовая глубина : 8 бит
Тип развёртки : Прогрессивная
Бит/(Пиксели*Кадры) : 0.188
Размер потока : 880 Мбайт (89%)
Библиотека кодирования : x264 core 148 r2597 e86f3a1
Настройки программы : cabac=1 / ref=10 / deblock=1:-2:-1 / analyse=0x3:0x113 / me=umh / subme=10 / psy=1 / psy_rd=1.00:0.00 / mixed_ref=1 / me_range=32 / chroma_me=1 / trellis=2 / 8x8dct=1 / cqm=0 / deadzone=21,11 / fast_pskip=1 / chroma_qp_offset=-2 / threads=6 / lookahead_threads=1 / sliced_threads=0 / nr=0 / decimate=0 / interlaced=0 / bluray_compat=0 / constrained_intra=0 / bframes=8 / b_pyramid=2 / b_adapt=2 / b_bias=0 / direct=3 / weightb=1 / open_gop=0 / weightp=2 / keyint=250 / keyint_min=25 / scenecut=40 / intra_refresh=0 / rc=2pass / mbtree=0 / bitrate=1871 / ratetol=1.0 / qcomp=0.60 / qpmin=0 / qpmax=69 / qpstep=4 / cplxblur=20.0 / qblur=0.5 / ip_ratio=1.40 / pb_ratio=1.30 / aq=1:1.00
Default : Да
Forced : Нет

Аудио
Идентификатор : 2
Формат : AC-3
Формат/Информация : Audio Coding 3
Расширение режима : CM (complete main)
Параметр Endianness формата : Big
Идентификатор кодека : A_AC3
Продолжительность : 1 ч. 7 м.
Вид битрейта : Постоянный
Битрейт : 192 Кбит/сек
Каналы : 2 канала
Расположение каналов : Front: L R
Частота : 48,0 КГц
Частота кадров : 31,250 кадров/сек (1536 spf)
Битовая глубина : 16 бит
Метод сжатия : С потерями
Размер потока : 92,2 Мбайт (9%)
Default : Да
Forced : Нет
pb.wtf



Скачать Взять живым через торрент http://s020.radikal.ru/i701/1701/8d/c546d40948b9.png Скачать фильм Взять живым через торрент бесплантно в хорошем качестве Описание:Экранизация одноименного романа Владимира Карпова. О судьбе солдата Василия Ромашкина, вчерашнего десятиклассника, прошедшего ... 10 10 3
Info! Золотая раздача, скачанное не засчитывается.
Торрент: Зарегистрирован [2017-01-19 09:58] · скачан: 37 раз
Статус: √ проверено
Размер: 2.91 GB
Как cкачать? Как скачать Взять живым через торрент | qTorrent

% Раздел Тема Автор DL S | L
Кино СССР [ 1.46 GB ] Взять живым [1982 СССР военный DVDRip от AVP Studio] AVP Studio Скачать
1 | 0
Кино СССР [ 2.91 GB ] Взять живым [1982 СССР военный DVDRip от AVP Studio] AVP Studio Скачать
1 | 0
Наши сериалы [ 2.18 GB ] Взять живым [1982 военный DVDRip] vasilich619 Скачать
1 | 1


>> Регистрируемся здесь <<






Отзывы и комментарии о схеме читаем и пишем здесь: ---> Отзывы и комментарии о схеме

Новые благодарочки в телеграм довольных пользователей:
скриншот   скриншот   скриншот   скриншот   скриншот

19-01-2017 17:46 Взять живым Скачать торрент  

надо пересмотретьpb.wtf



    Дорогой пользователь! Огромная просьба, поблагодарите релизера, оцените раздачу и оставьте свои комментарий, если Вы скачали Взять живым через торрент бесплатно! Внесите свою лепту в развитие PiratBit!
    Комментировать посты могут только пользователи прошедшие не сложную регистрацию
    Показать сообщения:    

    Взять живым через торрент
    Скачать бесплатно Взять живым
    Взять живым скачать торрент
    Взять живым смотреть онлайн
    Cкачать фильм Взять живым бесплатно
    Взять живым скачать торрент в хорошем качестве
    Взять живым смотреть онлайн бесплатно в хорошем качестве


    Вы не можете начинать темы
    Вы не можете отвечать на сообщения
    Вы не можете редактировать свои сообщения
    Вы не можете удалять свои сообщения
    Вы не можете голосовать в опросах
    Вы не можете прикреплять файлы к сообщениям
    Вы можете скачивать файлы