Ссылка на приватное зеркало нашего сайта всего за 1$. Внимание количество ограничено!!!

2 сезон

iTunes

1 сезон

1

iTunes

iTunes

iTunes

1 сезон

RePack

30

ИГРА 18+

pack

ВАЖНО

!!Акция!!

Alien_RageХит недели

RePack

MK11
pack

Забери бонус

RePack

jed

!!Акция!!

Alien_Rage

RePack

fifa19

RePack

Assassins Creed: Odyssey

RePack

NEED FOR SPEED™ PAYBACK

4 сезон

9 сезон

Бесстыжие 9 сезон

Все сериалы

все сериалы на PB.wtf

RePack

FAR CRY 5
  

Глубокое синее море / Deep Blue Sea (Ренни Харлин) [1999, фантастика, боевик, триллер, BDRip 1080p by msltel] DUB, MVO, 3 x AVO pb.wtf

Глубокое синее море через торрент pb.wtf

Раздают: 1 [ 0 KB/s ]
Размер: 12.95 GB | Добавлен: 3 года 9 мес. назад | Торрент скачан:70 раз
Скачать  

19-01-2017 10:32 Глубокое синее море Скачать торрент  

Название: Глубокое синее море
Оригинальное название: Deep Blue Sea
Год выпуска: 1999
Страна: США, Австралия
Жанр: фантастика, боевик, триллер
Продолжительность: 01:45:00
Перевод: дублированный, профессиональный многоголосый, авторский

Режиссёр: Ренни Харлин

В ролях: Томас Джейн, Саффрон Берроуз, ЛЛ Кул Джей, Майкл Рапапорт, Стеллан Скарсгард, Сэмюэл Л. Джексон, Жаклин МакКензи, Аида Туртурро, Кристос, Дэниэл Рей

Описание: Учёные подводной лаборатории «Акватика», разрабатывая препарат от болезни Альцгеймера, находят способ генетического увеличения мозга подопытных акул. Агрессивные и злобные хищники превращаются в думающих монстров-убийц, способных перехитрить своих создателей. Герои фильма пытаются справиться с разъяреёнными хищниками, но спастись от острых челюстей огромных и умных акул практически невозможно...



Качество: BDRip 1080p
Формат: MKV
Видео: MPEG-4 AVC, 12 Mбит/с, 1920x800, 23,976 кадра/с
Аудио 1: русский, AC3, 448 kbps, 6 ch, 48 kHz [дублированный, R5]
Аудио 2: русский, AC3, 448 kbps, 2 ch, 48 kHz [профессиональный многоголосый]
Аудио 3: русский, DTS, 1509 kbps, 6 ch, 48 kHz [авторский, Андрей Гаврилов]
Аудио 4: русский, DTS, 1509 kbps, 6 ch, 48 kHz [авторский, Дмитрий Есарев]
Аудио 5: русский, AC3, 192 kbps, 2 ch, 48 kHz [авторский, Александр Кашкин (Первомайский)]
Аудио 6: английский, DTS, 1509 kbps, 6 ch, 48 kHz [оригинал]
Субтитры 1: русские
Субтитры 2: английские (для слабослышащих)
Имеются неименованные главы/чаптеры.
Общее
Уникальный идентификатор : 254838072872818299204946878100634412907 (0xBFB8070D9EA2F220A69DE722BC79276B)
Полное имя : D:\Video\Глубокое синее море.1999.BDRip.1080p by msltel.mkv
Формат : Matroska
Версия формата : Version 4 / Version 2
Размер файла : 12,9 Гбайт
Продолжительность : 1 ч. 45 м.
Общий поток : 17,7 Мбит/сек
Название фильма : Rip by msltel
Дата кодирования : UTC 2017-01-19 02:58:54
Программа кодирования : mkvmerge v8.2.0 ('World of Adventure') 64bit
Библиотека кодирования : libebml v1.3.1 + libmatroska v1.4.2

Видео
Идентификатор : 1
Формат : AVC
Формат/Информация : Advanced Video Codec
Профиль формата : High@L4.1
Параметр CABAC формата : Да
Параметр ReFrames формата : 4 кадра
Идентификатор кодека : V_MPEG4/ISO/AVC
Продолжительность : 1 ч. 45 м.
Битрейт : 12,0 Мбит/сек
Ширина : 1920 пикселей
Высота : 800 пикселей
Соотношение сторон : 2,40:1
Режим частоты кадров : Постоянный
Частота кадров : 23,976 (24000/1001) кадра/сек
Цветовое пространство : YUV
Субдискретизация насыщенности : 4:2:0
Битовая глубина : 8 бит
Тип развёртки : Прогрессивная
Бит/(Пиксели*Кадры) : 0.327
Размер потока : 8,83 Гбайт (68%)
Библиотека кодирования : x264 core 146 r2538 121396c
Настройки программы : cabac=1 / ref=4 / deblock=1:-3:-2 / analyse=0x3:0x113 / me=umh / subme=11 / psy=1 / psy_rd=1.00:0.15 / mixed_ref=1 / me_range=32 / chroma_me=1 / trellis=2 / 8x8dct=1 / cqm=0 / deadzone=21,11 / fast_pskip=0 / chroma_qp_offset=-3 / threads=6 / lookahead_threads=1 / sliced_threads=0 / nr=0 / decimate=1 / interlaced=0 / bluray_compat=0 / constrained_intra=0 / bframes=10 / b_pyramid=2 / b_adapt=2 / b_bias=0 / direct=1 / weightb=1 / open_gop=0 / weightp=2 / keyint=230 / keyint_min=23 / scenecut=40 / intra_refresh=0 / rc_lookahead=40 / rc=crf / mbtree=0 / crf=19.2 / qcomp=0.60 / qpmin=0 / qpmax=69 / qpstep=4 / vbv_maxrate=62500 / vbv_bufsize=78125 / crf_max=0.0 / nal_hrd=none / filler=0 / ip_ratio=1.40 / pb_ratio=1.30 / aq=1:1.00
Язык : English
Default : Да
Forced : Нет

Аудио #1
Идентификатор : 2
Формат : AC-3
Формат/Информация : Audio Coding 3
Расширение режима : CM (complete main)
Параметр Endianness формата : Big
Идентификатор кодека : A_AC3
Продолжительность : 1 ч. 45 м.
Вид битрейта : Постоянный
Битрейт : 448 Кбит/сек
Каналы : 6 каналов
Расположение каналов : Front: L C R, Side: L R, LFE
Частота : 48,0 КГц
Частота кадров : 31,250 кадров/сек (1536 spf)
Метод сжатия : С потерями
Размер потока : 336 Мбайт (3%)
Заголовок : DUB (R5)
Язык : Russian
Default : Да
Forced : Нет

Аудио #2
Идентификатор : 3
Формат : AC-3
Формат/Информация : Audio Coding 3
Расширение режима : CM (complete main)
Параметр Endianness формата : Big
Идентификатор кодека : A_AC3
Продолжительность : 1 ч. 45 м.
Вид битрейта : Постоянный
Битрейт : 448 Кбит/сек
Каналы : 2 канала
Расположение каналов : Front: L R
Частота : 48,0 КГц
Частота кадров : 31,250 кадров/сек (1536 spf)
Метод сжатия : С потерями
Размер потока : 336 Мбайт (3%)
Заголовок : MVO
Язык : Russian
Default : Нет
Forced : Нет

Аудио #3
Идентификатор : 4
Формат : DTS
Формат/Информация : Digital Theater Systems
Режим : 16
Параметр Endianness формата : Big
Идентификатор кодека : A_DTS
Продолжительность : 1 ч. 45 м.
Вид битрейта : Постоянный
Битрейт : 1509 Кбит/сек
Каналы : 6 каналов
Расположение каналов : Front: L C R, Side: L R, LFE
Частота : 48,0 КГц
Частота кадров : 93,750 кадра/сек (512 spf)
Битовая глубина : 24 бит
Метод сжатия : С потерями
Размер потока : 1,11 Гбайт (9%)
Заголовок : AVO (Андрей Гаврилов)
Язык : Russian
Default : Нет
Forced : Нет

Аудио #4
Идентификатор : 5
Формат : DTS
Формат/Информация : Digital Theater Systems
Режим : 16
Параметр Endianness формата : Big
Идентификатор кодека : A_DTS
Продолжительность : 1 ч. 45 м.
Вид битрейта : Постоянный
Битрейт : 1509 Кбит/сек
Каналы : 6 каналов
Расположение каналов : Front: L C R, Side: L R, LFE
Частота : 48,0 КГц
Частота кадров : 93,750 кадра/сек (512 spf)
Битовая глубина : 24 бит
Метод сжатия : С потерями
Размер потока : 1,11 Гбайт (9%)
Заголовок : AVO (Дмитрий Есарев)
Язык : Russian
Default : Нет
Forced : Нет

Аудио #5
Идентификатор : 6
Формат : AC-3
Формат/Информация : Audio Coding 3
Расширение режима : CM (complete main)
Параметр Endianness формата : Big
Идентификатор кодека : A_AC3
Продолжительность : 1 ч. 45 м.
Вид битрейта : Постоянный
Битрейт : 192 Кбит/сек
Каналы : 2 канала
Расположение каналов : Front: L R
Частота : 48,0 КГц
Частота кадров : 31,250 кадров/сек (1536 spf)
Метод сжатия : С потерями
Размер потока : 144 Мбайт (1%)
Заголовок : AVO (Александр Кашкин (Первомайский))
Язык : Russian
Default : Нет
Forced : Нет

Аудио #6
Идентификатор : 7
Формат : DTS
Формат/Информация : Digital Theater Systems
Режим : 16
Параметр Endianness формата : Big
Идентификатор кодека : A_DTS
Продолжительность : 1 ч. 45 м.
Вид битрейта : Постоянный
Битрейт : 1509 Кбит/сек
Каналы : 6 каналов
Расположение каналов : Front: L C R, Side: L R, LFE
Частота : 48,0 КГц
Частота кадров : 93,750 кадра/сек (512 spf)
Битовая глубина : 24 бит
Метод сжатия : С потерями
Размер потока : 1,11 Гбайт (9%)
Заголовок : original
Язык : English
Default : Нет
Forced : Нет

Текст #1
Идентификатор : 8
Формат : UTF-8
Идентификатор кодека : S_TEXT/UTF8
Идентификатор кодека/Информация : UTF-8 Plain Text
Продолжительность : 1 ч. 37 м.
Битрейт : 45 бит/сек
Count of elements : 756
Размер потока : 32,5 Кбайт (0%)
Заголовок : русские
Язык : Russian
Default : Нет
Forced : Нет

Текст #2
Идентификатор : 9
Формат : UTF-8
Идентификатор кодека : S_TEXT/UTF8
Идентификатор кодека/Информация : UTF-8 Plain Text
Продолжительность : 1 ч. 44 м.
Битрейт : 35 бит/сек
Count of elements : 864
Размер потока : 26,7 Кбайт (0%)
Заголовок : английские (для слабослышащих)
Язык : English
Default : Нет
Forced : Нет

Меню
00:00:00.000 : :Chapter 01
00:03:54.524 : :Chapter 02
00:07:07.844 : :Chapter 03
00:10:46.645 : :Chapter 04
00:13:23.010 : :Chapter 05
00:15:16.707 : :Chapter 06
00:18:30.359 : :Chapter 07
00:23:19.189 : :Chapter 08
00:29:09.913 : :Chapter 09
00:33:35.805 : :Chapter 10
00:35:51.314 : :Chapter 11
00:38:29.348 : :Chapter 12
00:40:15.328 : :Chapter 13
00:43:01.745 : :Chapter 14
00:46:54.393 : :Chapter 15
00:50:59.389 : :Chapter 16
00:54:42.569 : :Chapter 17
00:57:23.731 : :Chapter 18
01:01:41.363 : :Chapter 19
01:04:23.943 : :Chapter 20
01:08:35.361 : :Chapter 21
01:12:09.867 : :Chapter 22
01:15:13.091 : :Chapter 23
01:16:08.814 : :Chapter 24
01:18:00.509 : :Chapter 25
01:19:55.749 : :Chapter 26
01:23:44.352 : :Chapter 27
01:26:14.502 : :Chapter 28
01:28:44.818 : :Chapter 29
01:31:19.055 : :Chapter 30
01:33:42.157 : :Chapter 31
01:35:31.058 : :Chapter 32
01:37:36.892 : :Chapter 33
pb.wtf



Скачать Глубокое синее море через торрент http://s018.radikal.ru/i503/1701/84/8772af3f8ac1.jpg Скачать фильм Глубокое синее море через торрент бесплантно в хорошем качестве Описание: Учёные подводной лаборатории «Акватика», разрабатывая препарат от болезни Альцгеймера, находят способ генетического увеличения ... 8.3 10 7
Info! Золотая раздача, скачанное не засчитывается.
Торрент: Зарегистрирован [2017-01-19 10:32] · скачан: 70 раз
Статус: √ проверено
Размер: 12.95 GB
Как cкачать? Как скачать Глубокое синее море через торрент | qTorrent

% Раздел Тема Автор DL S | L
Фильмы [HD 720p, 1080p] (Хороший звук DUB, MVO) [ 5.25 GB ] Глубокое синее море / Deep Blue Sea [1999 BDRip 720p by msltel] DUB MVO 3 x AVO msltel Скачать
1 | 0

28-11-2019 20:33  

Отключить всю рекламу на сайте

19-01-2017 12:01 Глубокое синее море Скачать торрент  

классный фильм) обожаю его) автору спасибо, он должен быть на трекере!pb.wtf



19-01-2017 14:26 Глубокое синее море Скачать торрент  

зачетный кин,особенно момент поедания акулой Семюэляpb.wtf



20-01-2017 13:48 Глубокое синее море Скачать торрент  

Александр1300 писал(а):

зачетный кин,особенно момент поедания акулой Семюэля

А еще попугай повара жжет!pb.wtf



03-02-2017 09:53 Глубокое синее море Скачать торрент  

Yurich1974 писал(а):

Александр1300 писал(а):

зачетный кин,особенно момент поедания акулой Семюэля

А еще попугай повара жжет!

А еще негр прикольный. Не то что Уитакер в "Прибытии". Весь фильм ходит - морда кирпичом. А фильм очень классный, смотрел десяток раз. Сейчас такое не снимают. А жаль.pb.wtf



    Дорогой пользователь! Огромная просьба, поблагодарите релизера, оцените раздачу и оставьте свои комментарий, если Вы скачали Глубокое синее море через торрент бесплатно! Внесите свою лепту в развитие PiratBit!
    Комментировать посты могут только пользователи прошедшие не сложную регистрацию
    Показать сообщения:    

    Глубокое синее море через торрент
    Скачать бесплатно Глубокое синее море
    Глубокое синее море скачать торрент
    Глубокое синее море смотреть онлайн
    Cкачать фильм Глубокое синее море бесплатно
    Глубокое синее море скачать торрент в хорошем качестве
    Глубокое синее море смотреть онлайн бесплатно в хорошем качестве


    Вы не можете начинать темы
    Вы не можете отвечать на сообщения
    Вы не можете редактировать свои сообщения
    Вы не можете удалять свои сообщения
    Вы не можете голосовать в опросах
    Вы не можете прикреплять файлы к сообщениям
    Вы можете скачивать файлы