Ссылка на приватное зеркало нашего сайта всего за 1$. Внимание количество ограничено!!!

2 сезон

iTunes

1 сезон

1

2 сезон

2 сезон

iTunes

1 сезон

RePack

30

Ultimate

ВАЖНО

ИГРА 18+

pack

RePack

MK11
pack

Забери бонус

RePack

jed

!!Акция!!

Alien_Rage

RePack

fifa19

RePack

Assassins Creed: Odyssey

RePack

NEED FOR SPEED™ PAYBACK

4 сезон

9 сезон

Бесстыжие 9 сезон

Все сериалы

все сериалы на PB.wtf

RePack

FAR CRY 5
  

Падающая вода / Поток сознания / Falling Water / Сезон 1 / Серии 1-10 из 10 (Джек Бендер, Гай Ферленд, Хуан Карлос Фреснадильо) [2016, Фантастика, триллер, драма, детектив, WEB-DL 1080p] [MVO] (Newstudio) pb.wtf

Падающая вода через торрент pb.wtf

Размер: 18.8 GB | Добавлен: 3 года 10 мес. назад | Торрент скачан:45 раз
Скачать  

19-01-2017 17:07 Падающая вода Скачать торрент  


Поток сознания / Falling Water

Год выпуска: 2016
Страна: США | USA
Жанр: фантастика, триллер, драма, детектив
Продолжительность: ~00:56:00
Перевод# Профессиональный (многоголосый закадровый) | Newstudio
Cубтитры: нет

Режиссер: Джек Бендер, Гай Ферленд, Хуан Карлос Фреснадильо

В ролях: Дэвид Аджала, Лиззи Брошере, Уилл Юн Ли, Анна Вуд, Francesca Faridany, Труди Стайлер, Бен Ван Берген, Джои Озенн, Шайло Фернандес, Пуйа Мохсени

Описание: Сериал американского телеканала USA Network «Падающая вода» (альтернативное название – «Поток сознания») Эта галлюциногенная драма - история трёх, не связанных между собой людей, которые постепенно осознают, что во сне видят отдельные части общего сновидения. Перед каждым стоит таинственный и очень личный квест. Один ищет свою пропавшую подругу, второй – потерявшегося ребёнка, третий – лекарство от кататонии для матери. И лишь в общем сновидении можно отыскать ключик к каждой из этих загадок. Чем глубже они копают, тем более убеждаются: в общем сне есть не только разрешение их личных проблем, в нём – ключ к судьбе мира.


РЕЛИЗ от sergiy_psp

Качество видео: WEB-DL 1080p
Формат: MKV
Кодек: H.264 @ AC3
Видео: 1920x1080 at 23.976 fps, MPEG-4 AVC, ~5032 kbps avg, 0.101 bit/pixel
Аудио Rus: 48 kHz, AC3, 3/2 (L,C,R,l,r) + LFE ch, ~384.00 kbps avg |Многоголосый закадровый, Newstudio|
Аудио Eng: 48 kHz, AC3, 3/2 (L,C,R,l,r) + LFE ch, ~384.00 kbps avg
Cубтитры: нет
Видео
Идентификатор                            : 1
Формат                                   : AVC
Формат/Информация                        : Advanced Video Codec
Профиль формата                          : High@L4.0
Параметр CABAC формата                   : Да
Параметр ReFrames формата                : 4 кадра
Идентификатор кодека                     : V_MPEG4/ISO/AVC
Продолжительность                        : 56 м.
Битрейт                                  : 5105 Кбит/сек
Ширина                                   : 1920 пикселей
Высота                                   : 1080 пикселей
Соотношение сторон                       : 16:9
Режим частоты кадров                     : Постоянный
Частота кадров                           : 23,976 кадра/сек
Цветовое пространство                    : YUV
Субдискретизация насыщенности            : 4:2:0
Битовая глубина                          : 8 бит
Тип развёртки                            : Прогрессивная
Бит/(Пиксели*Кадры)                      : 0.103
Размер потока                            : 1,87 Гбайт (80%)
Заголовок                                : Falling.Water.S01E01.1080p.WEB-DL.Rus.Eng.sergiy_psp
Язык                                     : English
Default                                  : Да
Forced                                   : Нет
Основные цвета                           : BT.709
Характеристики трансфера                 : BT.709
Коэффициенты матрицы                     : BT.709
colour_range                             : Limited
Аудио #1
Идентификатор                            : 2
Формат                                   : AC-3
Формат/Информация                        : Audio Coding 3
Расширение режима                        : CM (complete main)
Параметр Endianness формата              : Big
Идентификатор кодека                     : A_AC3
Продолжительность                        : 56 м.
Вид битрейта                             : Постоянный
Битрейт                                  : 384 Кбит/сек
Каналы                                   : 6 каналов
Расположение каналов                     : Front: L C R, Side: L R, LFE
Частота                                  : 48,0 КГц
Битовая глубина                          : 16 бит
Метод сжатия                             : С потерями
Размер потока                            : 156 Мбайт (6%)
Заголовок                                : AC3 5.1 @ 384 kbps |Newstudio|
Язык                                     : Russian
Default                                  : Да
Forced                                   : Нет
Аудио #2
Идентификатор                            : 3
Формат                                   : AC-3
Формат/Информация                        : Audio Coding 3
Расширение режима                        : CM (complete main)
Параметр Endianness формата              : Big
Идентификатор кодека                     : A_AC3
Продолжительность                        : 56 м.
Вид битрейта                             : Постоянный
Битрейт                                  : 384 Кбит/сек
Каналы                                   : 6 каналов
Расположение каналов                     : Front: L C R, Side: L R, LFE
Частота                                  : 48,0 КГц
Битовая глубина                          : 16 бит
Метод сжатия                             : С потерями
Размер потока                            : 156 Мбайт (6%)
Заголовок                                : AC3 5.1 @ 384 kbps |Original|
Язык                                     : English
Default                                  : Нет
Forced                                   : Нет

pb.wtf



Скачать Падающая вода через торрент http://i83.fastpic.ru/big/2016/1030/b5/35673a91d3cdb214ecd40f01ad0f7bb5.png Скачать фильм Падающая вода через торрент бесплантно в хорошем качестве Описание: Сериал американского телеканала USA Network «Падающая вода» (альтернативное название – «Поток сознания») Эта галлюциногенная ... 7.8 10 4
Торрент: Зарегистрирован [2017-01-19 17:07] · скачан: 45 раз
Статус: √ проверено
Размер: 18.8 GB
Как cкачать? Как скачать Падающая вода через торрент | qTorrent

% Раздел Тема Автор DL S | L
Зарубежные сериалы [ 18.71 GB ] Падающая вода / Поток сознания / Falling Water / Сезон 2 / Серии 1-10 из 10 [2018 WEB-DLRip 1080p] [MVO] killermax2013 Скачать
1 | 0
Зарубежные сериалы [ 5.02 GB ] Падающая вода / Поток сознания / Falling Water / Сезон 2 / Серии 1-10 из 10 [2018 WEBRip] [MVO] killermax2013 Скачать
1 | 0
Зарубежные сериалы [ 5.6 GB ] Падающая вода / Поток сознания / Falling Water / Сезон 1 / Серии 1-10 из 10 [2016 WEB-DLRip] [MVO] killermax2013 Скачать
1 | 0

28-11-2019 20:33  

Отключить всю рекламу на сайте

19-01-2017 18:14 Падающая вода Скачать торрент  

Как сериал?Стоит ли смотреть?pb.wtf



19-01-2017 18:27 Падающая вода Скачать торрент  

lexa67 писал(а):

Как сериал?Стоит ли смотреть?

ну не то чтобы супер но мне было интересно смотретьpb.wtf



    Дорогой пользователь! Огромная просьба, поблагодарите релизера, оцените раздачу и оставьте свои комментарий, если Вы скачали Падающая вода через торрент бесплатно! Внесите свою лепту в развитие PiratBit!
    Комментировать посты могут только пользователи прошедшие не сложную регистрацию
    Показать сообщения:    

    Падающая вода через торрент
    Скачать бесплатно Падающая вода
    Падающая вода скачать торрент
    Падающая вода смотреть онлайн
    Cкачать фильм Падающая вода бесплатно
    Падающая вода скачать торрент в хорошем качестве
    Падающая вода смотреть онлайн бесплатно в хорошем качестве


    Вы не можете начинать темы
    Вы не можете отвечать на сообщения
    Вы не можете редактировать свои сообщения
    Вы не можете удалять свои сообщения
    Вы не можете голосовать в опросах
    Вы не можете прикреплять файлы к сообщениям
    Вы можете скачивать файлы