Ссылка на приватное зеркало нашего сайта всего за 1$. Внимание количество ограничено!!!

2 сезон

iTunes

1 сезон

1

iTunes

iTunes

iTunes

1 сезон

RePack

30

ИГРА 18+

pack

ВАЖНО

!!Акция!!

Alien_RageХит недели

RePack

MK11
pack

Забери бонус

RePack

jed

!!Акция!!

Alien_Rage

RePack

fifa19

RePack

Assassins Creed: Odyssey

RePack

NEED FOR SPEED™ PAYBACK

4 сезон

9 сезон

Бесстыжие 9 сезон

Все сериалы

все сериалы на PB.wtf

RePack

FAR CRY 5
  

Хешер / Hesher (Спенсер Сассер) [2010, драма, BDRip 720p by msltel] MVO, DVO, AVO pb.wtf

Хешер через торрент pb.wtf

Размер: 3.5 GB | Добавлен: 3 года 9 мес. назад | Торрент скачан:214 раз
Скачать  

20-01-2017 07:55 Хешер Скачать торрент  

Название: Хешер
Оригинальное название: Hesher
Год выпуска: 2010
Страна: США
Жанр: драма
Продолжительность: 01:46:04
Перевод: профессиональный многоголосый, профессиональный двухголосый, авторский

Режиссёр: Спенсер Сассер

В ролях: Джозеф Гордон-Левитт, Натали Портман, Девин Брошу, Рэйн Уилсон, Пайпер Лори, Брендан Йен Хилл, Джон Кэрролл Линч, Моника Стэггс, Мэри Элизабет Баррет, Одри Василевски

Описание: Хешер одиночка. Он ненавидит мир и всех. Он ходит с давно не мытыми волосами и с самодельными татуировками. Он плохо питается и курит много сигарет. Он любит огонь и часто поджигает различные предметы. Он мирно жил в своем фургоне до того момента, пока не встретил Ти Джея...



Качество: BDRip 720p
Формат: MKV
Видео: MPEG-4 AVC, 3186 Кбит/с, 1280х522, 23,976 кадра/с
Аудио 1: русский, AC3, 192 kbps, 2 ch, 48 kHz [профессиональный многоголосый, канал Кинопоказ]
Аудио 2: русский, AC3, 448 kbps, 6 ch, 48 kHz [профессиональный двухголосый, Ozz.TV]
Аудио 3: русский, AC3, 448 kbps, 6 ch, 48 kHz [авторский, Михаил Яроцкий (Киберпанк)]
Аудио 4: английский, AC3, 448 kbps, 6 ch, 48 kHz [оригинал]
Субтитры 1: русские
Субтитры 2: английские
Имеются неименованные главы/чаптеры.
В переводах и субтитрах присутствует ненормативная лексика.
Дефект на исходнике (1 сек.)
frame I:1071 Avg QP:14.37 size: 84067
frame P:28463 Avg QP:16.09 size: 33733
frame B:122855 Avg QP:17.74 size: 12054
Общее
Уникальный идентификатор : 190409481451844848922942590246449431317 (0x8F3F883E6989622A8F517407DC85C315)
Полное имя : D:VideoХешер.2010.BDRip.720p by msltel.mkv
Формат : Matroska
Версия формата : Version 4 / Version 2
Размер файла : 3,50 Гбайт
Продолжительность : 1 ч. 46 м.
Общий поток : 4719 Кбит/сек
Название фильма : Rip by msltel
Дата кодирования : UTC 2017-01-20 03:17:30
Программа кодирования : mkvmerge v8.2.0 ('World of Adventure') 64bit
Библиотека кодирования : libebml v1.3.1 + libmatroska v1.4.2

Видео
Идентификатор : 1
Формат : AVC
Формат/Информация : Advanced Video Codec
Профиль формата : High@L4.1
Параметр CABAC формата : Да
Параметр ReFrames формата : 9 кадров
Идентификатор кодека : V_MPEG4/ISO/AVC
Продолжительность : 1 ч. 45 м.
Битрейт : 3186 Кбит/сек
Ширина : 1280 пикселей
Высота : 522 пикселя
Соотношение сторон : 2,452
Режим частоты кадров : Постоянный
Частота кадров : 23,976 (24000/1001) кадра/сек
Цветовое пространство : YUV
Субдискретизация насыщенности : 4:2:0
Битовая глубина : 8 бит
Тип развёртки : Прогрессивная
Бит/(Пиксели*Кадры) : 0.199
Размер потока : 2,36 Гбайт (67%)
Библиотека кодирования : x264 core 146 r2538 121396c
Настройки программы : cabac=1 / ref=9 / deblock=1:-3:-2 / analyse=0x3:0x113 / me=umh / subme=11 / psy=1 / psy_rd=1.00:0.15 / mixed_ref=1 / me_range=32 / chroma_me=1 / trellis=2 / 8x8dct=1 / cqm=0 / deadzone=21,11 / fast_pskip=0 / chroma_qp_offset=-3 / threads=6 / lookahead_threads=1 / sliced_threads=0 / nr=0 / decimate=1 / interlaced=0 / bluray_compat=0 / constrained_intra=0 / bframes=13 / b_pyramid=2 / b_adapt=2 / b_bias=0 / direct=1 / weightb=1 / open_gop=0 / weightp=2 / keyint=230 / keyint_min=23 / scenecut=40 / intra_refresh=0 / rc_lookahead=40 / rc=crf / mbtree=0 / crf=17.5 / qcomp=0.60 / qpmin=0 / qpmax=69 / qpstep=4 / vbv_maxrate=62500 / vbv_bufsize=78125 / crf_max=0.0 / nal_hrd=none / filler=0 / ip_ratio=1.40 / pb_ratio=1.30 / aq=1:1.00
Язык : English
Default : Да
Forced : Нет

Аудио #1
Идентификатор : 2
Формат : AC-3
Формат/Информация : Audio Coding 3
Расширение режима : CM (complete main)
Параметр Endianness формата : Big
Идентификатор кодека : A_AC3
Продолжительность : 1 ч. 45 м.
Вид битрейта : Постоянный
Битрейт : 192 Кбит/сек
Каналы : 2 канала
Расположение каналов : Front: L R
Частота : 48,0 КГц
Частота кадров : 31,250 кадров/сек (1536 spf)
Метод сжатия : С потерями
Размер потока : 145 Мбайт (4%)
Заголовок : MVO (канал Кинопоказ)
Язык : Russian
Default : Да
Forced : Нет

Аудио #2
Идентификатор : 3
Формат : AC-3
Формат/Информация : Audio Coding 3
Расширение режима : CM (complete main)
Параметр Endianness формата : Big
Идентификатор кодека : A_AC3
Продолжительность : 1 ч. 46 м.
Вид битрейта : Постоянный
Битрейт : 448 Кбит/сек
Каналы : 6 каналов
Расположение каналов : Front: L C R, Side: L R, LFE
Частота : 48,0 КГц
Частота кадров : 31,250 кадров/сек (1536 spf)
Метод сжатия : С потерями
Размер потока : 340 Мбайт (9%)
Заголовок : DVO (Ozz.TV)
Язык : Russian
Default : Нет
Forced : Нет

Аудио #3
Идентификатор : 4
Формат : AC-3
Формат/Информация : Audio Coding 3
Расширение режима : CM (complete main)
Параметр Endianness формата : Big
Идентификатор кодека : A_AC3
Продолжительность : 1 ч. 45 м.
Вид битрейта : Постоянный
Битрейт : 448 Кбит/сек
Каналы : 6 каналов
Расположение каналов : Front: L C R, Side: L R, LFE
Частота : 48,0 КГц
Частота кадров : 31,250 кадров/сек (1536 spf)
Метод сжатия : С потерями
Размер потока : 339 Мбайт (9%)
Заголовок : AVO (Михаил Яроцкий (Киберпанк))
Язык : Russian
Default : Нет
Forced : Нет

Аудио #4
Идентификатор : 5
Формат : AC-3
Формат/Информация : Audio Coding 3
Расширение режима : CM (complete main)
Параметр Endianness формата : Big
Идентификатор кодека : A_AC3
Продолжительность : 1 ч. 45 м.
Вид битрейта : Постоянный
Битрейт : 448 Кбит/сек
Каналы : 6 каналов
Расположение каналов : Front: L C R, Side: L R, LFE
Частота : 48,0 КГц
Частота кадров : 31,250 кадров/сек (1536 spf)
Метод сжатия : С потерями
Размер потока : 339 Мбайт (9%)
Заголовок : original
Язык : English
Default : Нет
Forced : Нет

Текст #1
Идентификатор : 6
Формат : UTF-8
Идентификатор кодека : S_TEXT/UTF8
Идентификатор кодека/Информация : UTF-8 Plain Text
Продолжительность : 1 ч. 37 м.
Битрейт : 46 бит/сек
Count of elements : 827
Размер потока : 33,1 Кбайт (0%)
Заголовок : русские
Язык : Russian
Default : Нет
Forced : Нет

Текст #2
Идентификатор : 7
Формат : UTF-8
Идентификатор кодека : S_TEXT/UTF8
Идентификатор кодека/Информация : UTF-8 Plain Text
Продолжительность : 1 ч. 37 м.
Битрейт : 38 бит/сек
Count of elements : 1045
Размер потока : 27,4 Кбайт (0%)
Заголовок : английские
Язык : English
Default : Нет
Forced : Нет

Меню
00:00:00.000 : :Chapter 01
00:05:00.000 : :Chapter 02
00:10:00.000 : :Chapter 03
00:15:00.000 : :Chapter 04
00:20:00.000 : :Chapter 05
00:25:00.000 : :Chapter 06
00:30:00.000 : :Chapter 07
00:35:00.000 : :Chapter 08
00:40:00.000 : :Chapter 09
00:45:00.000 : :Chapter 10
00:50:00.000 : :Chapter 11
00:55:00.000 : :Chapter 12
01:00:00.000 : :Chapter 13
01:05:00.000 : :Chapter 14
01:10:00.000 : :Chapter 15
01:15:00.000 : :Chapter 16
01:20:00.000 : :Chapter 17
01:25:00.000 : :Chapter 18
01:30:00.000 : :Chapter 19
01:35:00.000 : :Chapter 20
01:40:00.000 : :Chapter 21
01:45:00.000 : :Chapter 22
pb.wtf



Скачать Хешер через торрент http://s018.radikal.ru/i524/1701/ef/66e67c31e611.jpg Скачать фильм Хешер через торрент бесплантно в хорошем качестве Описание: Хешер одиночка. Он ненавидит мир и всех. Он ходит с давно не мытыми волосами и с самодельными татуировками. Он плохо питается и ... 8.5 10 6
Info! Золотая раздача, скачанное не засчитывается.
Торрент: Зарегистрирован [2017-01-20 07:55] · скачан: 214 раз
Статус: √ проверено
Размер: 3.5 GB
Как cкачать? Как скачать Хешер через торрент | qTorrent

% Раздел Тема Автор DL S | L
Фильмы [HD 720p, 1080p] (Хороший звук DUB, MVO) [ 10.82 GB ] Хешер / Hesher [2010 BDRip 1080p by msltel] MVO DVO AVO msltel Скачать
1 | 0

28-11-2019 20:33  

Отключить всю рекламу на сайте

21-01-2017 17:56 Хешер Скачать торрент  

Необычный фильм- прямо скажу, но очень даже стоит посмотретьpb.wtf



    Дорогой пользователь! Огромная просьба, поблагодарите релизера, оцените раздачу и оставьте свои комментарий, если Вы скачали Хешер через торрент бесплатно! Внесите свою лепту в развитие PiratBit!
    Комментировать посты могут только пользователи прошедшие не сложную регистрацию
    Показать сообщения:    

    Хешер через торрент
    Скачать бесплатно Хешер
    Хешер скачать торрент
    Хешер смотреть онлайн
    Cкачать фильм Хешер бесплатно
    Хешер скачать торрент в хорошем качестве
    Хешер смотреть онлайн бесплатно в хорошем качестве


    Вы не можете начинать темы
    Вы не можете отвечать на сообщения
    Вы не можете редактировать свои сообщения
    Вы не можете удалять свои сообщения
    Вы не можете голосовать в опросах
    Вы не можете прикреплять файлы к сообщениям
    Вы можете скачивать файлы