Ссылка на приватное зеркало нашего сайта всего за 1$. Внимание количество ограничено!!!

2 сезон

iTunes

1 сезон

1

2 сезон

2 сезон

iTunes

1 сезон

RePack

30

Ultimate

ВАЖНО

ИГРА 18+

pack

RePack

MK11
pack

Забери бонус

RePack

jed

!!Акция!!

Alien_Rage

RePack

fifa19

RePack

Assassins Creed: Odyssey

RePack

NEED FOR SPEED™ PAYBACK

4 сезон

9 сезон

Бесстыжие 9 сезон

Все сериалы

все сериалы на PB.wtf

RePack

FAR CRY 5
  

Angry Birds в кино / Angry Birds (Клэй Кэйтис , Фергал Рейли ) [2016, мультфильм, боевик, комедия, UHDWEBRip 2160p] Дубляж - [Лицензия] pb.wtf

Angry Birds в кино через торрент pb.wtf

Размер: 43.58 GB | Добавлен: 3 года 10 мес. назад | Торрент скачан:145 раз
Скачать  

20-01-2017 12:15 Angry Birds в кино Скачать торрент  

Angry Birds в киноAngry Birds«Что такие сердитые?» Год выпуска: 2016
Страна: США, Финляндия
Жанр: мультфильм, боевик, комедия, семейный
Продолжительность: 01:37:13
Перевод: Дубляж - [Лицензия]
Режиссер: Клэй Кэйтис , Фергал Рейли
В ролях:
Джейсон Судейкис (Red, озвучка), Джош Гад (Chuck, озвучка), Дэнни МакБрайд (Bomb, озвучка), Майя Рудольф (Matilda, озвучка), Билл Хейдер (Leonard, озвучка), Питер Динклэйдж (Mighty Eagle, озвучка), Шон Пенн (Terence, озвучка), Кигэн-Майкл Ки (Judge Peckinpah, озвучка), Кейт МакКиннон (Stella / Eva the Birthday Mom, озвучка), Тони Хейл (Ross / Cyrus / Mime, озвучка), Хэннибал Бёресс (Edward the Birthday Dad, озвучка), Айк Баринхолц (Tiny, озвучка)
Описание:
Из-за своего буйного нрава Ред постоянно попадает в различные передряги. После очередного фонтана агрессии местный суд приговаривает его к бессрочному посещению курсов управления гневом. Между делом, на птичий остров приплывают зеленые свиньи и обманом выкрадывают у птичек все их яйца. Ред и его друзья отправляются на поиски легендарного Могучего Орла, чтобы заручиться его поддержкой и вернуть похищенное.
Рейтинг:

MPAA: PG - Рекомендуется присутствие родителей
Премьера (мир): 1 мая 2016
Премьера (РФ): 12 мая 2016, «WDSSPR»
Качество: UHDWEBRip 2160p
Формат: MKV
Видео: V_MPEGH/ISO/HEVC, 3840x2160 (16:9), 60822 kbps, 23,976 fps, 0,306 bpp
Аудио №1: английский / DTS-HD / 48 kHz / 2700 kbps / 16 bit
Аудио №2: русский / AC3 / 5.1 / 48 kHz / 640 kbps / ||
General
Unique ID : 179235165935931846462499805091247140413 (0x86D76FF3F667AA2487496B2FFEEFAE3D)
Complete name : Angry birds movies (2160p x265).mkv
Format : Matroska
Format version : Version 4 / Version 2
File size : 43.6 GiB
Duration : 1 h 37 min
Overall bit rate : 64.2 Mb/s
Encoded date : UTC 2016-10-01 04:20:11
Writing application : mkvmerge v9.2.0 ('Photograph') 64bit
Writing library : libebml v1.3.3 + libmatroska v1.4.4

Video
ID : 3
Format : HEVC
Format/Info : High Efficiency Video Coding
Format profile : Main 10@L6.1@Main
Codec ID : V_MPEGH/ISO/HEVC
Duration : 1 h 37 min
Bit rate : 60.8 Mb/s
Width : 3 840 pixels
Height : 2 160 pixels
Display aspect ratio : 16:9
Frame rate mode : Constant
Frame rate : 23.976 (24000/1001) FPS
Color space : YUV
Chroma subsampling : 4:2:0
Bit depth : 10 bits
Bits/(Pixel*Frame) : 0.306
Stream size : 41.3 GiB (95%)
Writing library : x265 1.9+3-63308f7658c3:[Windows][GCC 5.2.0][64 bit] 10bit
Encoding settings : wpp / ctu=64 / min-cu-size=8 / max-tu-size=32 / tu-intra-depth=1 / tu-inter-depth=1 / me=1 / subme=2 / merange=57 / no-rect / no-amp / max-merge=2 / temporal-mvp / no-early-skip / rdpenalty=0 / no-tskip / no-tskip-fast / strong-intra-smoothing / no-lossless / no-cu-lossless / no-constrained-intra / no-fast-intra / open-gop / no-temporal-layers / interlace=0 / keyint=240 / min-keyint=24 / scenecut=40 / rc-lookahead=20 / lookahead-slices=8 / bframes=4 / bframe-bias=0 / b-adapt=2 / ref=3 / limit-refs=3 / no-limit-modes / weightp / no-weightb / aq-mode=1 / qg-size=32 / aq-strength=1.00 / cbqpoffs=0 / crqpoffs=0 / rd=3 / psy-rd=2.00 / rdoq-level=0 / psy-rdoq=0.00 / signhide / deblock / sao / no-sao-non-deblock / b-pyramid / cutree / no-intra-refresh / rc=abr / bitrate=61000 / qcomp=0.60 / qpmin=0 / qpmax=51 / qpstep=4 / ipratio=1.40 / pbratio=1.30
Default : Yes
Forced : No
Color range : Limited
Color primaries : BT.709
Transfer characteristics : BT.709
Matrix coefficients : BT.601

Audio #1
ID : 1
Format : DTS
Format/Info : Digital Theater Systems
Format profile : MA / Core
Mode : 16
Format settings, Endianness : Big
Codec ID : A_DTS
Duration : 1 h 37 min
Bit rate mode : Variable / Constant
Bit rate : 2 701 kb/s / 1 509 kb/s
Channel(s) : 8 channels / 6 channels
Channel positions : Front: L C R, Side: L R, Back: L R, LFE / Front: L C R, Side: L R, LFE
Sampling rate : 48.0 kHz
Frame rate : 93.750 FPS (512 spf)
Bit depth : 16 bits
Compression mode : Lossless / Lossy
Delay relative to video : -1 ms
Stream size : 1.83 GiB (4%)
Title : Оригинал
Language : English
Default : Yes
Forced : No

Audio #2
ID : 2
Format : AC-3
Format/Info : Audio Coding 3
Mode extension : CM (complete main)
Format settings, Endianness : Big
Codec ID : A_AC3
Duration : 1 h 37 min
Bit rate mode : Constant
Bit rate : 640 kb/s
Channel(s) : 6 channels
Channel positions : Front: L C R, Side: L R, LFE
Sampling rate : 48.0 kHz
Frame rate : 31.250 FPS (1536 spf)
Compression mode : Lossy
Delay relative to video : -1 ms
Stream size : 445 MiB (1%)
Title : Дубляж
Language : Russian
Default : No
Forced : No


Скриншотыскриншот   скриншот   скриншот   скриншот   скриншот   скриншот   скриншот  pb.wtf



Скачать Angry Birds в кино через торрент http://i89.fastpic.ru/big/2017/0120/b3/37a95e0a53ac9ad1fd690fb6c3d41bb3.png Скачать фильм Angry Birds в кино через торрент бесплантно в хорошем качестве Описание: Из-за своего буйного нрава Ред постоянно попадает в различные передряги. После очередного фонтана агрессии местный суд ... 9 10 5
Info! Золотая раздача, скачанное не засчитывается.
Торрент: Зарегистрирован [2017-01-20 12:15] · скачан: 145 раз
Статус: √ проверено
Размер: 43.58 GB
Как cкачать? Как скачать Angry Birds в кино через торрент | qTorrent

% Раздел Тема Автор DL S | L
Мультфильмы (48-60 fps) [ 15.43 GB ] Angry Birds 2 в кино / The Angry Birds Movie 2 [2019 мультфильм BDRip 1080p 60 fps] DUB sheker187 Скачать
2 | 0
Ultra HD (UHD: 2K, 4K, 8K) [ 14.32 GB ] Angry Birds 2 в кино / The Angry Birds Movie 2 [2019 мультфильм UHD BDRip 2160p] [SDR] DUB bober100 Скачать
1 | 0
Ultra HD (UHD: 2K, 4K, 8K) [ 9.87 GB ] Angry Birds 2 в кино / The Angry Birds Movie 2 [2019 мультфильм UHD BDRip 2160p] DUB sheker187 Скачать
2 | 0
Ultra HD (UHD: 2K, 4K, 8K) [ 37.6 GB ] Angry Birds 2 в кино / The Angry Birds Movie 2 [2019 мультфильм UHD BDRemux 2160p] DUB bober100 Скачать
1 | 0
Иностранные мультфильмы [ 1.42 GB ] Angry Birds 2 в кино / The Angry Birds Movie 2 [2019 мультфильм BDRip] - Twi7ter Скачать
74 | 0
Иностранные мультфильмы [ 1.46 GB ] Angry Birds 2 в кино / The Angry Birds Movie 2 [2019 мультфильм HDRip] bober100 Скачать
48 | 0
Зарубежные Мультфильмы (BDRip 1080p, 720p, Blu-ray, BD-Remux) [ 8.38 GB ] Angry Birds 2 в кино / The Angry Birds Movie 2 [2019 мультфильм BDRip 1080p] DUB bober100 Скачать
6 | 0

28-11-2019 20:33  

Отключить всю рекламу на сайте

    Дорогой пользователь! Огромная просьба, поблагодарите релизера, оцените раздачу и оставьте свои комментарий, если Вы скачали Angry Birds в кино через торрент бесплатно! Внесите свою лепту в развитие PiratBit!
    Комментировать посты могут только пользователи прошедшие не сложную регистрацию
    Показать сообщения:    

    Angry Birds в кино через торрент
    Скачать бесплатно Angry Birds в кино
    Angry Birds в кино скачать торрент
    Angry Birds в кино смотреть онлайн
    Cкачать фильм Angry Birds в кино бесплатно
    Angry Birds в кино скачать торрент в хорошем качестве
    Angry Birds в кино смотреть онлайн бесплатно в хорошем качестве


    Вы не можете начинать темы
    Вы не можете отвечать на сообщения
    Вы не можете редактировать свои сообщения
    Вы не можете удалять свои сообщения
    Вы не можете голосовать в опросах
    Вы не можете прикреплять файлы к сообщениям
    Вы можете скачивать файлы