Всегда рабочее зеркало просто перед .vidak.icu напиши любое слово или цифру, Пример http://yc0.vidak.icu

>

7.4

iTunes

7.4

2 сезон

9.4

1 сезон

1

7.4

2 сезон

7.2

iTunes

6.0

MVO

13

6.1

iTunes

8.3

Пиратка

30

ULTIMATE

pack

9.9

Лицензия

ВАЖНО

ИГРА 18+

pack

7.3

RePack

MK11

7.7

RePack

jed

7.8

RePack

fifa19

8.5

RePack

RDR2

RePack

NEED FOR SPEED™ PAYBACK

1 сезон

9 сезон

Бесстыжие 9 сезон

Все сериалы

все сериалы на PB.wtf

RePack

FAR CRY 5

Anonymous, доброе утро, мы катастрофически не успеваем собрать деньги на оплату серверов, помогите нам пожалуйста 5,10,15р., для нас важна любая помощь . В качестве благодарности мы отключим Вам всю рекламу на сайте (укажите свой ник в строку Ваше имя)!

×
  
Magnet ссылка

Мистериум. Тьма в бутылке / Flaskepost fra P (Ганс Петтер Моланд) [2016 г., триллер, драма, HDRip, Авторский одноголосый "Ю.Немахов"] pb.wtf

Мистериум. Тьма в бутылке через торрент pb.wtf

Размер: 2.03 GB | Добавлен: 4 года 11 мес. назад | Торрент скачан:25 раз
Смотреть онлайн Мистериум. Тьма в бутылке | Скачать    Ребята, помогите собрать деньги на оплату серверов!!!

20-01-2017 18:08 Мистериум. Тьма в бутылке Скачать торрент  

Мистериум. Тьма в бутылке / Flaskepost fra P
Год выпуска: 2016
Страна: Дания, Германия, Швеция / Zentropa Entertainments20, Det Danske Filminstitut, Film i Väst
Жанр: триллер, драма
Продолжительность: 01:51:29
Перевод: Авторский одноголосый (Ю.Немахов)

Режиссер: Ганс Петтер Моланд

rating


В ролях: Николай Ли Каас, Фарес Фарес, Пол Сверре Валхейм Хаген, Якоб Ульрик Ломанн, , Джохэнн Луиз Шмидт, Якоб Офтебро, Сигне Анастассиа Маннов, Сёрен Пильмарк, Михаэль Броструп

Описание: Выброшенная на берег моря бутылка с леденящим душу посланием, написанным восемь лет назад, привлекает внимание особого отдела полиции Копенгагена. За расследование берутся комиссар Карл Мёрк и его помощник. Они выходят на след убийцы-психопата и раскрывают жуткую историю похищенных детей, об исчезновении которых никто не заявлял.

Качество: HDRip
Формат: AVI
Видео кодек: DivX 5
Аудио кодек: AC3
Видео: 720x304 (2.37:1), 24.000 fps, DivX 5 build 50 ~2149 kbps avg, 0.41 bit/pixel
Аудио: 48 kHz, AC3 Dolby Digital, 3/2 (L,C,R,l,r) + LFE ch, ~448 kbps

Общее
Полное имя : F:\ФИЛЬМЫ\Мистериум. Тьма в бутылке.2016.A.HDRip.avi
Формат : AVI
Формат/Информация : Audio Video Interleave
Профиль формата : OpenDML
Размер файла : 2,03 Гбайт
Продолжительность : 1 ч. 51 м.
Общий поток : 2604 Кбит/сек
Программа кодирования : VirtualDubMod 1.5.10.3 | www.virtualdub-fr.org || (build 2550/release)
Библиотека кодирования : VirtualDubMod build 2550/release

Видео
Идентификатор : 0
Формат : MPEG-4 Visual
Профиль формата : Advanced Simple@L5
Параметр BVOP формата : 1
Параметр QPel формата : Нет
Параметр GMC формата : Без точки перехода
Параметр матрицы формата : Default (MPEG)
Идентификатор кодека : DX50
Идентификатор кодека/Подсказка : DivX 5
Продолжительность : 1 ч. 51 м.
Битрейт : 2144 Кбит/сек
Ширина : 720 пикселей
Высота : 304 пикселя
Соотношение сторон : 2,35:1
Частота кадров : 24,000 кадра/сек
Цветовое пространство : YUV
Субдискретизация насыщенности : 4:2:0
Битовая глубина : 8 бит
Тип развёртки : Прогрессивная
Метод сжатия : С потерями
Бит/(Пиксели*Кадры) : 0.408
Размер потока : 1,67 Гбайт (82%)
Библиотека кодирования : XviD 1.2.1 (UTC 2008-12-04)

Аудио
Идентификатор : 1
Формат : AC-3
Формат/Информация : Audio Coding 3
Расширение режима : CM (complete main)
Параметр Endianness формата : Big
Идентификатор кодека : 2000
Продолжительность : 1 ч. 51 м.
Вид битрейта : Постоянный
Битрейт : 448 Кбит/сек
Каналы : 6 каналов
Расположение каналов : Front: L C R, Side: L R, LFE
Частота : 48,0 КГц
Частота кадров : 31,250 кадров/сек (1536 spf)
Битовая глубина : 16 бит
Метод сжатия : С потерями
Размер потока : 357 Мбайт (17%)
Выравнивание : Разделение по промежуткам
Продолжительность промежутка : 42 мс. (1,00 видеокадр)
Время предзагрузки промежутка : 500 мс.

pb.wtf



Скачать Мистериум. Тьма в бутылке через торрент http://i89.fastpic.ru/big/2017/0120/91/cb71c38165b6240e4168d8188ca3f291.jpg Скачать, смотреть онлайн Мистериум. Тьма в бутылке бесплантно в хорошем качестве Описание: Выброшенная на берег моря бутылка с леденящим душу посланием, написанным восемь лет назад, привлекает внимание особого отдела ... 10 10 4
Торрент: Зарегистрирован [2017-01-20 18:21] · скачан: 25 раз
Статус: √ проверено
Размер: 2.03 GB
Как cкачать? Как скачать Мистериум. Тьма в бутылке через торрент | UTorrent

% Раздел Тема Автор DL S | L
Фильмы 2016 [DVDrip, WEB-DLRip, HDrip] (DUB, MVO) [ 2.25 GB ] Мистериум. Тьма в бутылке / Flaskepost fra P [2016 BDRip-AVC] DUB [ Blu-ray RUS] bober100 Скачать
23 | 0
Фильмы 2016 [DVDrip, WEB-DLRip, HDrip] (DUB, MVO) [ 2.18 GB ] Мистериум. Тьма в бутылке / Flaskepost fra P [2016 BDRip] DUB [ Blu-ray RUS] bober100 Скачать
7 | 0
Фильмы 2016 [DVDrip, WEB-DLRip, HDrip] (DUB, MVO) [ 1.46 GB ] Мистериум. Тьма в бутылке / Flaskepost fra P [2016 BDRip] DUB [ Blu-ray RUS] bober100 Скачать
12 | 0
Фильмы [HD 720p, 1080p] (Хороший звук DUB, MVO) [ 12.02 GB ] Мистериум. Тьма в бутылке / Flaskepost fra P [2016 BDRip 1080p] bober100 Скачать
2 | 0
Фильмы [HD 720p, 1080p] (Хороший звук DUB, MVO) [ 4.18 GB ] Мистериум. Тьма в бутылке / Flaskepost fra P [2016 BDRip 720p] bober100 Скачать
3 | 0
T Фильмы 2016 [DVDrip, WEB-DLRip, HDrip] (DUB, MVO) [ 1.41 GB ] Мистериум. Тьма в бутылке / Flaskepost fra P [2016 экранизация BDRip] Любительский [GreenРай Studio] Twi7ter Скачать
1 | 0
T Фильмы (Blu-ray, BD-Remux, HDDVD) [ 20.38 GB ] Мистериум. Тьма в бутылке / Flaskepost fra P [2016 BDRemux 1080p] MVO Russian Mafia Скачать
1 | 0

28-11-2019 20:33  

Отключить всю рекламу на сайте

20-01-2017 20:41 Мистериум. Тьма в бутылке Скачать торрент  

Смотрел. Нормальный кинчик.pb.wtf



    Дорогой пользователь! Огромная просьба, поблагодарите релизера, оцените раздачу и оставьте свои комментарий, если Вы скачали Мистериум. Тьма в бутылке через торрент бесплатно!
    Комментировать посты могут только пользователи прошедшие не сложную регистрацию
    Показать сообщения:    

    Мистериум. Тьма в бутылке через торрент
    Скачать бесплатно Мистериум. Тьма в бутылке
    Мистериум. Тьма в бутылке скачать торрент
    Мистериум. Тьма в бутылке смотреть онлайн
    Cкачать фильм Мистериум. Тьма в бутылке бесплатно
    Мистериум. Тьма в бутылке скачать торрент в хорошем качестве
    Мистериум. Тьма в бутылке смотреть онлайн бесплатно в хорошем качестве


    Вы не можете начинать темы
    Вы не можете отвечать на сообщения
    Вы не можете редактировать свои сообщения
    Вы не можете удалять свои сообщения
    Вы не можете голосовать в опросах
    Вы не можете прикреплять файлы к сообщениям
    Вы можете скачивать файлы