Ссылка на приватное зеркало нашего сайта всего за 1$. Внимание количество ограничено!!!

2 сезон

iTunes

1 сезон

1

iTunes

iTunes

iTunes

1 сезон

RePack

30

ИГРА 18+

pack

ВАЖНО

!!Акция!!

Alien_RageХит недели

RePack

MK11
pack

Забери бонус

RePack

jed

!!Акция!!

Alien_Rage

RePack

fifa19

RePack

Assassins Creed: Odyssey

RePack

NEED FOR SPEED™ PAYBACK

4 сезон

9 сезон

Бесстыжие 9 сезон

Все сериалы

все сериалы на PB.wtf

RePack

FAR CRY 5
  

Второй брак / 1-4 серии из 4 (Олег Массарыгин) [2015 г., мелодрама, WEB-DLRip 720p] pb.wtf

Второй брак через торрент pb.wtf

Размер: 3.45 GB | Добавлен: 3 года 9 мес. назад | Торрент скачан:41 раз
Скачать  

20-01-2017 20:19 Второй брак Скачать торрент  

Второй брак
Год выпуска: 2015
Страна: Россия
Жанр: мелодрама
Продолжительность: 4 x ~ 00:44:00
Перевод: Не требуется
Субтитры: отсутствуют

Режиссер: Олег Массарыгин



В ролях:

Иван Жидков, Маргарита Адаева, Лариса Домаскина, Натали Старынкевич, Дарья Иванова, Виталий Кудрявцев, Александр Бобров (III), Сергей Стёпин, Константин Тополага, Ангелина Притуманова, Олег Клёнов (II), Виктор Хоркин, Галина Шмакова, Даниил Меркулов, Михаил Водзуми, Валентин Валл, Юлия Самойленко

Описание:

Настя Окунева приезжает в Москву и получает работу в крупной строительной компании, которой руководит подруга ее покойной матери Кира Георгиевна. Но наладившаяся жизнь в столице ставится под вопрос, когда Кира Георгиевна скоропостижно умирает. Управление компанией переходит к ее сыну Глебу – холостому и привлекательному молодому человеку. Неожиданно для Насти он начинает оказывать ей знаки внимания и даже делает предложение. Девушка без ума от счастья, но до конца боится поверить, что это происходит наяву. Если бы она только знала, что у Глеба давно есть невеста Марина, а руку и сердце он предлагает ей только, чтобы получить наследство – таково было завещание Киры Георгиевны. Кто же из двух девушек станет женой Глеба, которому гадалка уже предсказала – только второй брак будет для него счастливым?


Качество: WEB-DLRip 720p
Формат: MKV
Видео кодек: H.264
Аудио кодек: AC3

Видео: 1280х720 (16:9), 25 fps, AVC MPEG-4 (x264), High@L4, ~ 2569 kbps avg, 0.112 bit/pixel
Аудио#1: 48 kHz, AC3, 2/0 (L,R) ch, ~192 kbps
Общее
Уникальный идентификатор : 170761473328539251381582414585535813327 (0x807776A6D4469877B0DB0EE1B49256CF)
Полное имя : C:\Второй брак.2015.720p.\01.mkv
Формат : Matroska
Версия формата : Version 2
Размер файла : 882 Мбайт
Продолжительность : 44 м. 43 с.
Общий поток : 2759 Кбит/сек
Дата кодирования : UTC 2017-01-20 07:37:16
Программа кодирования : mkvmerge v6.1.0 ('Old Devil') built on Mar 4 2013 09:10:42
Библиотека кодирования : libebml v1.3.0 + libmatroska v1.4.0

Видео
Идентификатор : 1
Формат : AVC
Формат/Информация : Advanced Video Codec
Профиль формата : High@L4
Параметр CABAC формата : Да
Параметр ReFrames формата : 4 кадра
Идентификатор кодека : V_MPEG4/ISO/AVC
Продолжительность : 44 м. 43 с.
Битрейт : 2569 Кбит/сек
Ширина : 1280 пикселей
Высота : 720 пикселей
Соотношение сторон : 16:9
Режим частоты кадров : Постоянный
Частота кадров : 25,000 кадров/сек
Цветовое пространство : YUV
Субдискретизация насыщенности : 4:2:0
Битовая глубина : 8 бит
Тип развёртки : Прогрессивная
Бит/(Пиксели*Кадры) : 0.112
Размер потока : 803 Мбайт (91%)
Библиотека кодирования : x264 core 142
Настройки программы : cabac=1 / ref=3 / deblock=1:0:0 / analyse=0x3:0x113 / me=hex / subme=7 / psy=1 / psy_rd=1.00:0.00 / mixed_ref=1 / me_range=16 / chroma_me=1 / trellis=1 / 8x8dct=1 / cqm=0 / deadzone=21,11 / fast_pskip=1 / chroma_qp_offset=-2 / threads=48 / lookahead_threads=5 / sliced_threads=0 / nr=0 / decimate=1 / interlaced=0 / bluray_compat=0 / constrained_intra=0 / bframes=6 / b_pyramid=2 / b_adapt=1 / b_bias=0 / direct=1 / weightb=1 / open_gop=0 / weightp=2 / keyint=200 / keyint_min=20 / scenecut=0 / intra_refresh=0 / rc_lookahead=40 / rc=2pass / mbtree=1 / bitrate=2569 / ratetol=1.0 / qcomp=0.60 / qpmin=0 / qpmax=69 / qpstep=4 / cplxblur=20.0 / qblur=0.5 / vbv_maxrate=3854 / vbv_bufsize=10279 / nal_hrd=none / filler=0 / ip_ratio=1.40 / aq=1:1.00
Язык : English
Default : Да
Forced : Нет

Аудио
Идентификатор : 2
Формат : AC-3
Формат/Информация : Audio Coding 3
Расширение режима : CM (complete main)
Параметр Endianness формата : Big
Идентификатор кодека : A_AC3
Продолжительность : 44 м. 43 с.
Вид битрейта : Постоянный
Битрейт : 192 Кбит/сек
Каналы : 2 канала
Расположение каналов : Front: L R
Частота : 48,0 КГц
Частота кадров : 31,250 кадров/сек (1536 spf)
Битовая глубина : 16 бит
Метод сжатия : С потерями
Размер потока : 61,4 Мбайт (7%)
Default : Да
Forced : Нет
скриншот   скриншот   скриншот   скриншот  
pb.wtf



Скачать Второй брак через торрент http://s020.radikal.ru/i701/1701/42/96d307a83578.jpg Скачать фильм Второй брак через торрент бесплантно в хорошем качестве Описание: Настя Окунева приезжает в Москву и получает работу в крупной строительной компании, которой руководит подруга ее покойной матери ... 10 10 4
Торрент: Зарегистрирован [2017-01-20 20:19] · скачан: 41 раз
Статус: √ проверено
Размер: 3.45 GB
Как cкачать? Как скачать Второй брак через торрент | qTorrent

% Раздел Тема Автор DL S | L
Наши сериалы [ 2.14 GB ] Второй брак/ Серии: 1-4 из 4 [2015 SATRip-AVC] aleksan55 Скачать
1 | 0

28-11-2019 20:33  

Отключить всю рекламу на сайте

    Дорогой пользователь! Огромная просьба, поблагодарите релизера, оцените раздачу и оставьте свои комментарий, если Вы скачали Второй брак через торрент бесплатно! Внесите свою лепту в развитие PiratBit!
    Комментировать посты могут только пользователи прошедшие не сложную регистрацию
    Показать сообщения:    

    Второй брак через торрент
    Скачать бесплатно Второй брак
    Второй брак скачать торрент
    Второй брак смотреть онлайн
    Cкачать фильм Второй брак бесплатно
    Второй брак скачать торрент в хорошем качестве
    Второй брак смотреть онлайн бесплатно в хорошем качестве


    Вы не можете начинать темы
    Вы не можете отвечать на сообщения
    Вы не можете редактировать свои сообщения
    Вы не можете удалять свои сообщения
    Вы не можете голосовать в опросах
    Вы не можете прикреплять файлы к сообщениям
    Вы можете скачивать файлы