Ссылка на приватное зеркало нашего сайта всего за 1$. Внимание количество ограничено!!!

2 сезон

iTunes

1 сезон

1

2 сезон

2 сезон

iTunes

1 сезон

RePack

30

Ultimate

ВАЖНО

ИГРА 18+

pack

RePack

MK11
pack

Забери бонус

RePack

jed

!!Акция!!

Alien_Rage

RePack

fifa19

RePack

Assassins Creed: Odyssey

RePack

NEED FOR SPEED™ PAYBACK

4 сезон

9 сезон

Бесстыжие 9 сезон

Все сериалы

все сериалы на PB.wtf

RePack

FAR CRY 5
  

ЛюбвеоБОЛЬный / Вспомнить все связи / Lovesick / Сезон 1 / Серии 1-6 из 6 (Гордон Андерсон / Gordon Anderson, Эллиот Хегарти / Elliot Hegarty) [2014, Великобритания, комедия, WEB-DLRip-AVC] MVO [BaibaKo] pb.wtf

ЛюбвеоБОЛЬный через торрент pb.wtf

Размер: 2.72 GB | Добавлен: 3 года 10 мес. назад | Торрент скачан:32 раза
Скачать  

21-01-2017 04:34 ЛюбвеоБОЛЬный Скачать торрент  

ЛюбвеоБОЛЬный / Вспомнить все связи / Lovesick


  • Год выпуска: 2014
  • Страна: Великобритания
  • Жанр: комедия
  • Продолжительность: 00:23:45 (Серия)
  • Перевод: Профессиональный многоголосый [BaibaKo]
  • Режиссер: Гордон Андерсон / Gordon Anderson, Эллиот Хегарти / Elliot Hegarty
  • В ролях:

    Джонни Флинн (Dylan), Антония Томас (Evie), Дэниэл Ингс (Luke), Ричард Томсон (Mal), Ханна Бритланд (Abigail), Джош МакГуайр (Angus), Джессика Эллерби (Jane), Риэнн Стил (Cleo), Айми Паркес (Helen), Джэми Деметриу (Samuels), Тёрло Конвери (McNeish), Робин Милн (Mandy)


  • Выяснив, что подхватил венерическое заболевание, Дилан должен связаться со всеми девушками, с которыми он занимался сексом, чтобы сообщить им плохие новости.
  • Рейтинг:



  • Качество: WEB-DLRip-AVC
  • Формат: :MPEG-4
  • Видео кодек: AVC
  • Аудио кодек: AC3
  • Видео: 1024x576 (16:9), 2000 kbps, 25 fps, 0,136 bpp
  • Аудио №1: русский / 2.0 / 48 kHz / 384 kbps / 16 bit |[BaibaKo]|
  • Аудио №2: английский / 2.0 / 48 kHz / 384 kbps / 16 bit
  • Релиз от: GEKADOL

    General
    Complete name : K:\ЛюбвеоБОЛЬный (Lovesick 1)\Lovesick.s01e01.WEB-DLRip-AVC.Rus.Eng.BaibaKo.tv.mp4
    Format : MPEG-4
    Format profile : Base Media
    Codec ID : isom (isom/iso2/avc1/mp41)
    File size : 472 MiB
    Duration : 23 min
    Overall bit rate : 2 776 kb/s
    Writing application : XviD4PSP 7.0.347 DAILY
    HDVideo : Yes
    encoding_info : MATROSKA / WEBM > MP4 Произвольный / H264 > X264 CBR 2000kbps HQ / AC3 > AC3 CBR 384kbps / AC3 > AC3 CBR 384kbps

    Video
    ID : 1
    Format : AVC
    Format/Info : Advanced Video Codec
    Format profile : High@L4.1
    Format settings, CABAC : Yes
    Format settings, ReFrames : 4 frames
    Codec ID : avc1
    Codec ID/Info : Advanced Video Coding
    Duration : 23 min
    Bit rate : 2 000 kb/s
    Width : 1 024 pixels
    Height : 576 pixels
    Display aspect ratio : 16:9
    Frame rate mode : Constant
    Frame rate : 25.000 FPS
    Color space : YUV
    Chroma subsampling : 4:2:0
    Bit depth : 8 bits
    Scan type : Progressive
    Bits/(Pixel*Frame) : 0.136
    Stream size : 340 MiB (72%)
    Writing library : x264 core 148 r2744M b97ae06
    Encoding settings : cabac=1 / ref=3 / deblock=1:-1:-1 / analyse=0x3:0x133 / me=hex / subme=7 / psy=1 / psy_rd=1.00:0.20 / mixed_ref=1 / me_range=16 / chroma_me=1 / trellis=1 / 8x8dct=1 / cqm=0 / deadzone=21,11 / fast_pskip=1 / chroma_qp_offset=-3 / threads=5 / lookahead_threads=1 / sliced_threads=0 / nr=0 / decimate=1 / interlaced=0 / bluray_compat=0 / constrained_intra=0 / bframes=3 / b_pyramid=2 / b_adapt=2 / b_bias=0 / direct=3 / weightb=1 / open_gop=0 / weightp=2 / keyint=250 / keyint_min=25 / scenecut=40 / intra_refresh=0 / rc_lookahead=40 / rc=cbr / mbtree=1 / bitrate=2000 / ratetol=1.0 / qcomp=0.60 / qpmin=0 / qpmax=69 / qpstep=4 / vbv_maxrate=2000 / vbv_bufsize=30000 / nal_hrd=none / filler=0 / ip_ratio=1.40 / aq=1:1.00

    Audio #1
    ID : 2
    Format : AC-3
    Format/Info : Audio Coding 3
    Mode extension : CM (complete main)
    Format settings, Endianness : Big
    Codec ID : ac-3
    Duration : 23 min
    Bit rate mode : Constant
    Bit rate : 384 kb/s
    Channel(s) : 2 channels
    Channel positions : Front: L R
    Sampling rate : 48.0 kHz
    Frame rate : 31.250 FPS (1536 spf)
    Bit depth : 16 bits
    Compression mode : Lossy
    Stream size : 65.2 MiB (14%)
    Language : Russian
    Default : Yes
    Alternate group : 1

    Audio #2
    ID : 3
    Format : AC-3
    Format/Info : Audio Coding 3
    Mode extension : CM (complete main)
    Format settings, Endianness : Big
    Codec ID : ac-3
    Duration : 23 min
    Bit rate mode : Constant
    Bit rate : 384 kb/s
    Channel(s) : 2 channels
    Channel positions : Front: L R
    Sampling rate : 48.0 kHz
    Frame rate : 31.250 FPS (1536 spf)
    Bit depth : 16 bits
    Compression mode : Lossy
    Stream size : 65.2 MiB (14%)
    Language : English
    Default : No
    Alternate group : 1





    Скриншоты:



    pb.wtf



  • Скачать ЛюбвеоБОЛЬный через торрент http://i89.fastpic.ru/big/2017/0121/df/a4a5d4a98a54ee9de7de8958e38096df.jpg Скачать фильм ЛюбвеоБОЛЬный через торрент бесплантно в хорошем качестве qw.png Выяснив, что подхватил венерическое заболевание, Дилан должен связаться со всеми девушками, с которыми он занимался сексом, чтобы ... 1 10 2
    Info! Золотая раздача, скачанное не засчитывается.
    Торрент: Зарегистрирован [2017-01-21 04:34] · скачан: 32 раз
    Статус: √ проверено
    Размер: 2.72 GB
    Как cкачать? Как скачать ЛюбвеоБОЛЬный через торрент | qTorrent

    28-11-2019 20:33  

    Отключить всю рекламу на сайте

      Дорогой пользователь! Огромная просьба, поблагодарите релизера, оцените раздачу и оставьте свои комментарий, если Вы скачали ЛюбвеоБОЛЬный через торрент бесплатно! Внесите свою лепту в развитие PiratBit!
      Комментировать посты могут только пользователи прошедшие не сложную регистрацию
      Показать сообщения:    

      ЛюбвеоБОЛЬный через торрент
      Скачать бесплатно ЛюбвеоБОЛЬный
      ЛюбвеоБОЛЬный скачать торрент
      ЛюбвеоБОЛЬный смотреть онлайн
      Cкачать фильм ЛюбвеоБОЛЬный бесплатно
      ЛюбвеоБОЛЬный скачать торрент в хорошем качестве
      ЛюбвеоБОЛЬный смотреть онлайн бесплатно в хорошем качестве


      Вы не можете начинать темы
      Вы не можете отвечать на сообщения
      Вы не можете редактировать свои сообщения
      Вы не можете удалять свои сообщения
      Вы не можете голосовать в опросах
      Вы не можете прикреплять файлы к сообщениям
      Вы можете скачивать файлы