2 сезон

iTunes

MVO

1

2 сезон

iTunes

iTunes

1 сезон

RePack

30

Новинка

ВАЖНО

ИГРА 18+

pack

RePack

MK11
pack

Легкие деньги

RePack

jed

RePack

fifa19

RePack

RDR2

RePack

NEED FOR SPEED™ PAYBACK

4 сезон

9 сезон

Бесстыжие 9 сезон

Все сериалы

все сериалы на PB.wtf

RePack

FAR CRY 5

Anonymous, добрый день, мы не успеваем собрать деньги на оплату серверов за декабрь и январь, помогите нам пожалуйста в это трудное время. В качестве благодарности мы отключим Вам всю рекламу на сайте (укажите свой ник в строку Ваше имя)!

×
  
Magnet ссылка

Плохие дети отправляются в ад / Bad Kids of Crestview Academy (Бен Браудер) [2017 г., фантастика, триллер, комедия, детектив, WEB-DLRip, Любительский многоголосый (@MUZOBOZ@)] pb.wtf

Плохие дети отправляются в ад через торрент pb.wtf

Размер: 1.37 GB | Добавлен: 4 года назад | Торрент скачан:754 раза
Скачать  

21-01-2017 05:05 Плохие дети отправляются в ад Скачать торрент  

Плохие дети отправляются в ад / Bad Kids of Crestview Academy
Год выпуска: 2017
Страна: США
Жанр: фантастика, триллер, комедия, детектив
Продолжительность: 01:41:35
Перевод: Любительский многоголосый (@MUZOBOZ@)
Субтитры: Нет

Режиссер: Бен Браудер

rating

В ролях: Шон Эстин, Джина Гершон, Дрэйк Белл, Бен Браудер, Сэмми Ханратти, Александра Эстин, Суфе Брэдшоу, Софи Тэйлор Али, Камерон Дин Стюарт, Билли Блэр

Описание: Новая группа студентов в качестве наказания оставлена в субботу в элитной академии. После того как один из студентов запирает учителя, который был оставлен, чтобы присматриваться за ними, начинают происходить странные события...

Доп. информация: Реклама: Есть!

Качество: WEB-DLRip
Формат: AVI
Видео кодек: XviD
Аудио кодек: AC3
Видео: XviD, 720x400, 1724 Kbps, 23,976 fps
Аудио: AC3,192 Kbps, 2 ch, 48KHz



General
Complete name : H:\релизы.торрентфайл\Bad.Kids.of.Crestview.Academy.2O17.P.WEB-DLRip.14OOMB.avi
Format : AVI
Format/Info : Audio Video Interleave
File size : 1.37 GiB
Duration : 1h 41mn
Overall bit rate : 1 926 Kbps
Writing application : VirtualDubMod 1.5.10.2 (build 2540/release)
Writing library : VirtualDubMod build 2540/release

Video
ID : 0
Format : MPEG-4 Visual
Format profile : Advanced Simple@L5
Format settings, BVOP : 2
Format settings, QPel : No
Format settings, GMC : No warppoints
Format settings, Matrix : Default (MPEG)
Codec ID : XVID
Codec ID/Hint : XviD
Duration : 1h 41mn
Bit rate : 1 725 Kbps
Width : 720 pixels
Height : 400 pixels
Display aspect ratio : 16:9
Frame rate : 23.976 fps
Color space : YUV
Chroma subsampling : 4:2:0
Bit depth : 8 bits
Scan type : Progressive
Compression mode : Lossy
Bits/(Pixel*Frame) : 0.250
Stream size : 1.22 GiB (90%)
Writing library : XviD 1.2.1 (UTC 2008-12-04)

Audio
ID : 1
Format : AC-3
Format/Info : Audio Coding 3
Mode extension : CM (complete main)
Format settings, Endianness : Big
Codec ID : 2000
Duration : 1h 41mn
Bit rate mode : Constant
Bit rate : 192 Kbps
Channel(s) : 2 channels
Channel positions : Front: L R
Sampling rate : 48.0 KHz
Bit depth : 16 bits
Compression mode : Lossy
Stream size : 140 MiB (10%)
Alignment : Split accross interleaves
Interleave, duration : 42 ms (1.00 video frame)
Interleave, preload duration : 500 ms

pb.wtf



Скачать Плохие дети отправляются в ад через торрент https://pic1.kartinco.top/images/11/eqh57.jpg Скачать фильм Плохие дети отправляются в ад через торрент бесплантно в хорошем качестве Описание: Новая группа студентов в качестве наказания оставлена в субботу в элитной академии. После того как один из студентов запирает ... 8.3 10 16
Info! Золотая раздача, скачанное не засчитывается.
Торрент: Зарегистрирован [2017-01-21 05:05] · скачан: 754 раз
Статус: T временная
Размер: 1.37 GB
Как cкачать? Как скачать Плохие дети отправляются в ад через торрент | UTorrent

% Раздел Тема Автор DL S | L
T Релизы по Парсеру [Игры, Сериалы и Фильмы и другое...] [ 1.37 GB ] Плохие дети отправляются в ад 2 / Bad Kids of Crestview Academy [2017 WEB-DLRip] MVO [@MUZOBOZ@] bober100 Скачать
1 | 0

28-11-2019 20:33  

Отключить всю рекламу на сайте

21-01-2017 14:13 Плохие дети отправляются в ад Скачать торрент  

Треш полный.))) Продолжение есть?pb.wtf



    Дорогой пользователь! Огромная просьба, поблагодарите релизера, оцените раздачу и оставьте свои комментарий, если Вы скачали Плохие дети отправляются в ад через торрент бесплатно! Внесите свою лепту в развитие PiratBit!
    Комментировать посты могут только пользователи прошедшие не сложную регистрацию
    Показать сообщения:    

    Плохие дети отправляются в ад через торрент
    Скачать бесплатно Плохие дети отправляются в ад
    Плохие дети отправляются в ад скачать торрент
    Плохие дети отправляются в ад смотреть онлайн
    Cкачать фильм Плохие дети отправляются в ад бесплатно
    Плохие дети отправляются в ад скачать торрент в хорошем качестве
    Плохие дети отправляются в ад смотреть онлайн бесплатно в хорошем качестве


    Вы не можете начинать темы
    Вы не можете отвечать на сообщения
    Вы не можете редактировать свои сообщения
    Вы не можете удалять свои сообщения
    Вы не можете голосовать в опросах
    Вы не можете прикреплять файлы к сообщениям
    Вы можете скачивать файлы