новый адрес
Мега распродажа FORZA HORIZON 4 ULTIMATE+ВСЕ DLC+ОНЛАЙН всего за 499р. 349 руб. (супер цена). Внимание количество ограничено!!!

iTunes

1+1

iTunes

мы

iTunes

1

iTunes

Чернобыль

iTunes

Ральф против интернета

Лицензия

ПШазам

Лицензия

Игра престолов

Лицензия

30
pack

ВАЖНО

!!Акция!!

Alien_RageХит недели

RePack

Resident Evil 21

ИГРА 18+

pack

RePack

Metro:Exodus

!!Акция!!

Alien_Rage

RePack

fifa19

RePack

Assassins Creed: Odyssey

RePack

NEED FOR SPEED™ PAYBACK

3 сезон

9 сезон

Бесстыжие 9 сезон

Все сериалы

все сериалы на PB.wtf

RePack

FAR CRY 5
Ребята, катастрофически не хватает 1900р. для оплаты серверов за Октябрь (всвязи с блокировками трафик упал в 3 раза), 1-2р., выручайте.
  

Призвание (Мария Федорова) [1956, СССР, драма, детский, SATRip от AVP Studio] pb.wtf

Призвание через торрент pb.wtf

Размер: 746 MB | Добавлен: 2 года 9 мес. назад | Торрент скачан:8 раз
Скачать  

21-01-2017 09:05 Призвание Скачать торрент  

Призвание
Страна: СССР
Производство: К/ст им. Горького

Жанр: драма, детский
Год выпуска: 1956
Продолжительность: 01:28:23

Перевод: Не требуется
Cубтитры: нет
Оригинальная аудиодорожка: русский

Режиссер: Мария Федорова

В ролях:
Андрей Демьянов, Миша Тягунов, Григорий Белов, Ада Войцик, Леонид Галлис, Марина Кузнецова, Лена Ильинская, Павел Барштейн, Виктор Легошин...
Об актёрах подробней

Описание:
В годы войны, потеряв семью, Алеша попадает в детский дом. Весь свой досуг мальчик посвящает музыке, чему всячески способствует воспитательница Мария Павловна. Обнаружив у Алеши исключительные способности, гастролирующий дирижер Добрынин усыновляет мальчика и привозит его в Москву. Добрынин очень доволен: его сын и Алеша учатся в одной музыкальной школе. Однако названный брат во многом уязвляет самолюбие Бори. После очередного оскорбления Алеша уходит из дома и попадает в дом профессора Никольского. Вскоре в Колонном зале Дома Союзов вместе с оркестром под управлением дирижера Добрынина Алеша исполняет фортепьянный концерт. Юному музыканту аплодирует Мария Павловна, Боря и весь зал.

Источник: DVB
Качество видео: SATRip
Формат видео: AVI

Видео: 640x480 (4:3), 25 fps, XviD ~ 1042 kbps avg, 0.136 bit/pixel
Аудио: 48 kHz, MP3 2.0, 128 kbps

Раздача от:
Общее
Полное имя : Prizvanie.1956.SATRip-745_[New-team]_by_AVP_Studio.avi
Формат : AVI
Формат/Информация : Audio Video Interleave
Размер файла : 746 Мбайт
Продолжительность : 1 ч. 28 м.
Общий поток : 1179 Кбит/сек
Программа кодирования : VirtualDubMod 1.5.10.3 | www.virtualdub-fr.org || (build 2550/release)
Библиотека кодирования : VirtualDubMod build 2550/release

Видео
Идентификатор : 0
Формат : MPEG-4 Visual
Профиль формата : Advanced Simple@L5
Параметр BVOP формата : 1
Параметр QPel формата : Нет
Параметр GMC формата : Без точки перехода
Параметр матрицы формата : Выборочная
Идентификатор кодека : XVID
Идентификатор кодека/Подсказка : XviD
Продолжительность : 1 ч. 28 м.
Битрейт : 1042 Кбит/сек
Ширина : 640 пикселей
Высота : 480 пикселей
Соотношение сторон : 4:3
Частота кадров : 25,000 кадров/сек
Цветовое пространство : YUV
Субдискретизация насыщенности : 4:2:0
Битовая глубина : 8 бит
Тип развёртки : Прогрессивная
Метод сжатия : С потерями
Бит/(Пиксели*Кадры) : 0.136
Размер потока : 659 Мбайт (88%)
Библиотека кодирования : XviD 73

Аудио
Идентификатор : 1
Формат : MPEG Audio
Версия формата : Version 1
Профиль формата : Layer 3
Идентификатор кодека : 55
Идентификатор кодека/Подсказка : MP3
Продолжительность : 1 ч. 28 м.
Вид битрейта : Постоянный
Битрейт : 128 Кбит/сек
Каналы : 2 канала
Частота : 48,0 КГц
Метод сжатия : С потерями
Размер потока : 80,9 Мбайт (11%)
Выравнивание : Соединение по промежуткам
Продолжительность промежутка : 40 мс. (1,00 видеокадр)
Время предзагрузки промежутка : 504 мс.
Библиотека кодирования : LAME3.99r
Настройки программы : -m s -V 4 -q 2 -lowpass 17 -b 128
pb.wtf



Скачать Призвание через торрент http://s13.radikal.ru/i186/1701/4b/2d5d7561a2db.png Скачать фильм Призвание через торрент бесплантно в хорошем качестве Описание:В годы войны, потеряв семью, Алеша попадает в детский дом. Весь свой досуг мальчик посвящает музыке, чему всячески способствует ... 10 10 1
Info! Золотая раздача, скачанное не засчитывается.
Торрент: Зарегистрирован [2017-01-21 09:05] · скачан: 8 раз
Статус: √ проверено
Размер: 746 MB
Как cкачать? Как скачать Призвание через торрент | qTorrent

% Раздел Тема Автор DL S | L
Кино СССР [ 1.09 GB ] Призвание [1956 СССР детский SATRip-AVC от AVP Studio] AVP Studio Скачать
1 | 0
Кино СССР [ 1.09 GB ] Призвание [1956 СССР детский SATRip от AVP Studio] AVP Studio Скачать
1 | 0
Фильмы (WEB-DL 720p, 1080p) [ 3.59 GB ] Призвание / The Calling [2013 WEB-DL 720p многоголосый] | Russia| кэп Скачать
1 | 0
Фильмы 2014 [DVDrip, WEB-DLRip, HDrip] [ 1.37 GB ] Призвание / The Calling [2014 WEB-DLRip многоголосый Ворон Скачать
1 | 0
Гонзо [ 1.36 GB ] Призвание Всех Сисек / Calling All Boobs [2012 All Sex Gonzo DVDRip Оригинал] SKAV Скачать
1 | 0
Разное [ 126 MB ] Сосать её призвание [2011 All sex CamRip] blondin4ik Скачать
1 | 0


>> Регистрируемся здесь <<






Отзывы и комментарии о схеме читаем и пишем здесь: ---> Отзывы и комментарии о схеме

Новые благодарочки в телеграм довольных пользователей:
скриншот   скриншот   скриншот   скриншот   скриншот
    Дорогой пользователь! Огромная просьба, поблагодарите релизера, оцените раздачу и оставьте свои комментарий, если Вы скачали Призвание через торрент бесплатно! Внесите свою лепту в развитие PiratBit!
    Комментировать посты могут только пользователи прошедшие не сложную регистрацию
    Показать сообщения:    

    Призвание через торрент
    Скачать бесплатно Призвание
    Призвание скачать торрент
    Призвание смотреть онлайн
    Cкачать фильм Призвание бесплатно
    Призвание скачать торрент в хорошем качестве
    Призвание смотреть онлайн бесплатно в хорошем качестве


    Вы не можете начинать темы
    Вы не можете отвечать на сообщения
    Вы не можете редактировать свои сообщения
    Вы не можете удалять свои сообщения
    Вы не можете голосовать в опросах
    Вы не можете прикреплять файлы к сообщениям
    Вы можете скачивать файлы