2 сезон

iTunes

MVO

1

2 сезон

iTunes

iTunes

1 сезон

RePack

30

Новинка

ВАЖНО

ИГРА 18+

pack

RePack

MK11
pack

Легкие деньги

RePack

jed

RePack

fifa19

RePack

RDR2

RePack

NEED FOR SPEED™ PAYBACK

4 сезон

9 сезон

Бесстыжие 9 сезон

Все сериалы

все сериалы на PB.wtf

RePack

FAR CRY 5

Anonymous, добрый день, мы не успеваем собрать деньги на оплату серверов за декабрь и январь, помогите нам пожалуйста в это трудное время. В качестве благодарности мы отключим Вам всю рекламу на сайте (укажите свой ник в строку Ваше имя)!

×
  
Magnet ссылка

И грянул шторм в 3D/ The Finest Hours 3D (Крэйг Гиллеспи ) [2016, боевик, триллер, драма, BDRip 1080p] Дубляж - [Лицензия] / Half OverUnder pb.wtf

И грянул шторм в 3D через торрент pb.wtf

Размер: 10.07 GB | Добавлен: 3 года 11 мес. назад | Торрент скачан:225 раз
Скачать  

21-01-2017 14:21 И грянул шторм в 3D Скачать торрент  

И грянул шторм в 3DThe Finest Hours 3D«32 survivors, room for 12» Год выпуска: 2016
Страна: США
Студия: Walt Disney Pictures, Whitaker Entertainment
Жанр: боевик, триллер, драма, история
Продолжительность: 01:57:20
Перевод: Профессиональный (полное дублирование)[BD EUR]
Субтитры: русские (Форсированные), русские (Полные), английские (Full), английские (SDH), английские (SDH-Colored)
Режиссер: Крэйг Гиллеспи
В ролях:
Крис Пайн (Bernie Webber), Кейси Аффлек (Ray Sybert), Бен Фостер (Richard Livesey), Эрик Бана (Daniel Cluff), Холлидей Грейнджер (Miriam Webber), Джон Ортис (Wallace Quirey), Кайл Галлнер (Andy Fitzgerald), Джон Магаро (Ervin Maske), Грэм МакТавиш (Frank Fauteux), Майкл Рэймонд-Джеймс (D.A. Brown), Бо Напп (Mel Gouthro), Джош Стюарт (Tchuda Southerland)
Описание:
Сюжет фильма основан на реальных событиях, произошедших в 1952 году, когда сотрудники береговой охраны в самый разгар шторма, используя деревянные моторные лодки, пытались спасти экипаж двух нефтяных танкеров.
Рейтинг:

MPAA: PG-13 - Детям до 13 лет просмотр не желателен
Премьера (мир): 27 января 2016
Премьера (РФ): 4 февраля 2016, «WDSSPR»
Качество: BDRip 1080p (by Ash61)
Формат: MKV
Формат 3D: Half OverUnder / Вертикальная анаморфная стереопара
Видео: AVC, 1920x1080 (16:9), 11004 kbps, 23,976 fps, 0,221 bpp
Аудио №1: русский / AC3 / 5.1 / 48 kHz / 640 kbps / ||
Аудио №2: английский / AC3 / 5.1 / 48 kHz / 640 kbps /
Навигация по главам: есть
General
Unique ID : 189216432047432290391242790049970878758 (0x8E59C25DE1CD60E28F988D88BE7F7926)
Complete name : TheFinestHours(2016)3D-halfOU(Ash61).mkv
Format : Matroska
Format version : Version 4 / Version 2
File size : 10.1 GiB
Duration : 1 h 57 min
Overall bit rate : 12.3 Mb/s
Movie name : И грянул шторм / The Finest Hours (2016) в 3Д
Encoded date : UTC 2016-06-08 08:19:06
Writing application : mkvmerge v8.3.0 ('Over the Horizon') 64bit
Writing library : libebml v1.3.1 + libmatroska v1.4.2
Cover : Yes
Attachments : Cover.png

Video
ID : 1
Format : AVC
Format/Info : Advanced Video Codec
Format profile : High@L4.1
Format settings, CABAC : Yes
Format settings, ReFrames : 4 frames
Codec ID : V_MPEG4/ISO/AVC
Duration : 1 h 57 min
Bit rate : 11.0 Mb/s
Width : 1 920 pixels
Height : 1 080 pixels
Display aspect ratio : 16:9
Frame rate mode : Constant
Frame rate : 23.976 (24000/1001) FPS
Color space : YUV
Chroma subsampling : 4:2:0
Bit depth : 8 bits
Scan type : Progressive
Bits/(Pixel*Frame) : 0.221
Stream size : 9.02 GiB (90%)
Title : BDRip by Ash61
Writing library : x264 core 146 r2538 121396c
Encoding settings : cabac=1 / ref=4 / deblock=1:-3:-3 / analyse=0x3:0x113 / me=umh / subme=10 / psy=1 / psy_rd=1.00:0.00 / mixed_ref=1 / me_range=32 / chroma_me=1 / trellis=2 / 8x8dct=1 / cqm=0 / deadzone=21,11 / fast_pskip=1 / chroma_qp_offset=-2 / threads=12 / lookahead_threads=3 / sliced_threads=0 / nr=0 / decimate=1 / interlaced=0 / bluray_compat=0 / constrained_intra=0 / bframes=12 / b_pyramid=2 / b_adapt=2 / b_bias=0 / direct=3 / weightb=1 / open_gop=0 / weightp=2 / keyint=250 / keyint_min=23 / scenecut=40 / intra_refresh=0 / rc_lookahead=60 / rc=crf / mbtree=1 / crf=15.0 / qcomp=0.70 / qpmin=0 / qpmax=69 / qpstep=4 / vbv_maxrate=40000 / vbv_bufsize=30000 / crf_max=0.0 / nal_hrd=none / filler=0 / frame-packing=4 / ip_ratio=1.40 / aq=1:0.70
Language : English
Default : Yes
Forced : No

Audio #1
ID : 2
Format : AC-3
Format/Info : Audio Coding 3
Mode extension : CM (complete main)
Format settings, Endianness : Big
Codec ID : A_AC3
Duration : 1 h 57 min
Bit rate mode : Constant
Bit rate : 640 kb/s
Channel(s) : 6 channels
Channel positions : Front: L C R, Side: L R, LFE
Sampling rate : 48.0 kHz
Frame rate : 31.250 FPS (1536 spf)
Compression mode : Lossy
Stream size : 537 MiB (5%)
Title : AC3 5.1 @ 640 kbps - DUB, Blu-ray EUR
Language : Russian
Default : Yes
Forced : No

Audio #2
ID : 3
Format : AC-3
Format/Info : Audio Coding 3
Mode extension : CM (complete main)
Format settings, Endianness : Big
Codec ID : A_AC3
Duration : 1 h 57 min
Bit rate mode : Constant
Bit rate : 640 kb/s
Channel(s) : 6 channels
Channel positions : Front: L C R, Side: L R, LFE
Sampling rate : 48.0 kHz
Frame rate : 31.250 FPS (1536 spf)
Compression mode : Lossy
Stream size : 537 MiB (5%)
Title : Original - BD 3D
Language : English
Default : No
Forced : No

Text #1
ID : 4
Format : UTF-8
Codec ID : S_TEXT/UTF8
Codec ID/Info : UTF-8 Plain Text
Duration : 1 h 49 min
Bit rate : 1 b/s
Count of elements : 12
Stream size : 1.22 KiB (0%)
Title : Форсированные
Language : Russian
Default : Yes
Forced : No

Text #2
ID : 5
Format : UTF-8
Codec ID : S_TEXT/UTF8
Codec ID/Info : UTF-8 Plain Text
Duration : 1 h 49 min
Bit rate : 72 b/s
Count of elements : 968
Stream size : 58.2 KiB (0%)
Title : Полные
Language : Russian
Default : No
Forced : No

Text #3
ID : 6
Format : UTF-8
Codec ID : S_TEXT/UTF8
Codec ID/Info : UTF-8 Plain Text
Duration : 1 h 56 min
Bit rate : 47 b/s
Count of elements : 1418
Stream size : 40.7 KiB (0%)
Title : Full
Language : English
Default : No
Forced : No

Text #4
ID : 7
Format : UTF-8
Codec ID : S_TEXT/UTF8
Codec ID/Info : UTF-8 Plain Text
Duration : 1 h 55 min
Bit rate : 53 b/s
Count of elements : 1616
Stream size : 45.6 KiB (0%)
Title : SDH
Language : English
Default : No
Forced : No

Text #5
ID : 8
Format : UTF-8
Codec ID : S_TEXT/UTF8
Codec ID/Info : UTF-8 Plain Text
Duration : 1 h 56 min
Bit rate : 69 b/s
Count of elements : 1617
Stream size : 59.7 KiB (0%)
Title : SDH-Colored
Language : English
Default : No
Forced : No

Menu
00:00:00.000 : :1
00:09:13.885 : :2
00:14:22.193 : :3
00:19:52.106 : :4
00:22:56.791 : :5
00:28:34.378 : :6
00:34:05.209 : :7
00:36:59.382 : :8
00:42:50.900 : :9
00:45:01.155 : :10
00:46:59.440 : :11
00:48:44.463 : :12
00:50:12.550 : :13
00:55:53.141 : :14
01:04:47.967 : :15
01:08:58.634 : :16
01:11:38.836 : :17
01:16:16.488 : :18
01:20:30.324 : :19
01:33:30.479 : :20
01:42:27.640 : :21
01:49:40.323 : :22


скриншот   скриншот   скриншот   скриншот   скриншот   скриншот  pb.wtf



Скачать И грянул шторм в 3D через торрент http://i90.fastpic.ru/big/2017/0121/08/0c15301f4bc1e65492cd21b3a27d0f08.png Скачать фильм И грянул шторм в 3Dчерез торрент бесплантно в хорошем качестве Описание: Сюжет фильма основан на реальных событиях, произошедших в 1952 году, когда сотрудники береговой охраны в самый разгар шторма, ... 8.5 10 6
Info! Серебряная раздача, засчитывается только 50% скачанного.
Торрент: Зарегистрирован [2017-01-21 14:21] · скачан: 225 раз
Статус: √ проверено
Размер: 10.07 GB
Как cкачать? Как скачать И грянул шторм в 3D через торрент | UTorrent

28-11-2019 20:33  

Отключить всю рекламу на сайте

    Дорогой пользователь! Огромная просьба, поблагодарите релизера, оцените раздачу и оставьте свои комментарий, если Вы скачали И грянул шторм в 3D через торрент бесплатно! Внесите свою лепту в развитие PiratBit!
    Комментировать посты могут только пользователи прошедшие не сложную регистрацию
    Показать сообщения:    

    И грянул шторм в 3D через торрент
    Скачать бесплатно И грянул шторм в 3D
    И грянул шторм в 3D скачать торрент
    И грянул шторм в 3D смотреть онлайн
    Cкачать фильм И грянул шторм в 3D бесплатно
    И грянул шторм в 3D скачать торрент в хорошем качестве
    И грянул шторм в 3D смотреть онлайн бесплатно в хорошем качестве


    Вы не можете начинать темы
    Вы не можете отвечать на сообщения
    Вы не можете редактировать свои сообщения
    Вы не можете удалять свои сообщения
    Вы не можете голосовать в опросах
    Вы не можете прикреплять файлы к сообщениям
    Вы можете скачивать файлы