Ссылка на приватное зеркало нашего сайта всего за 1$. Внимание количество ограничено!!!

2 сезон

iTunes

1 сезон

1

2 сезон

2 сезон

iTunes

1 сезон

RePack

30

Ultimate

ВАЖНО

ИГРА 18+

pack

RePack

MK11
pack

Забери бонус

RePack

jed

!!Акция!!

Alien_Rage

RePack

fifa19

RePack

Assassins Creed: Odyssey

RePack

NEED FOR SPEED™ PAYBACK

4 сезон

9 сезон

Бесстыжие 9 сезон

Все сериалы

все сериалы на PB.wtf

RePack

FAR CRY 5
  

Джек Ричер 2: Никогда не возвращайся / Jack Reacher: Never Go Back (Эдвард Цвик) [2016, Боевик, триллер, криминал, детектив, экранизация, BDRemux 1080p] Дубляж / iTunes pb.wtf

Джек Ричер 2: Никогда не возвращайся через торрент pb.wtf

Размер: 23.52 GB | Добавлен: 3 года 10 мес. назад | Торрент скачан:160 раз
Скачать  

21-01-2017 16:48 Джек Ричер 2: Никогда не возвращайся Скачать торрент  

Информация о фильме
Название: Джек Ричер 2: Никогда не возвращайся
Оригинальное название: Jack Reacher: Never Go Back
Год выхода: 2016
Жанр: Боевик, триллер, криминал, детектив, экранизация
Страна: Китай, США
Студия: Huahua Film & Media Culture, Paramount Pictures
Продолжительность: 01:58:09
Перевод: Дублированный | iTunes
Субтитры: Русские (forced, full), английские

Режиссер: Эдвард Цвик

В ролях: Том Круз, Коби Смолдерс, Роберт Неппер, Даника Ярош, Нинджа Н. Деву, Элдис Ходж, Холт МакКэллани, Мэдалин Хорчер, Чейз Савой, Сью-Линн Ансари

О фильме:

Джек Ричер решил взять передышку и вернуться в родное 110-е подразделение военной полиции, где он когда-то был начальником. Тем более у него есть дополнительный интерес — действующий командир части, майор Сьюзан Тернер. Именно майор Тернер выручила его, сообщая своим волнующим голосом по телефону ценную информацию, которая помогла Джеку Ричеру выпутаться из серьезных неприятностей. И вот теперь у него есть возможность поблагодарить коллегу лично. Вот только оказавшись в расположении части, Ричер узнает, что буквально на днях Сьюзан арестовали за получение крупной взятки. А его самого обвинили в убийстве шестнадцатилетней давности, о событиях которого он ничего не помнит. Странное совпадение или чей-то злой умысел? Возвращение в место, где когда-то было хорошо и относительно спокойно, оборачивается новыми неприятностями и приключениями.

rating

Качество: BDRemux 1080p
Формат: MKV
Видео: MPEG-4 AVC, 1920x1080, 23.7 Мbit/s, 23.976 fps
Аудио #01: 48 kHz, AC3, 5.1, 384 Kbps | Дублированный | iTunes |
Аудио #02: 48 kHz, TrueHD, 7.1, 4326 kbps | Оригинал |
General

Unique ID : 170948380562919587087658214824209802681 (0x809B75E3CA77E9FA92DB16C9D1C7E5B9)

Complete name : F:VideoJack.Reacher.Never.Go.Back.2016.BDREMUX.1080p.ExKinoRay.mkv

Format : Matroska

Format version : Version 4 / Version 2

File size : 23.5 GiB

Duration : 1 h 58 min

Overall bit rate mode : Variable

Overall bit rate : 28.5 Mb/s

Encoded date : UTC 2017-01-21 16:30:35

Writing application : mkvmerge v8.3.0 ('Over the Horizon') 64bit

Writing library : libebml v1.3.1 + libmatroska v1.4.2

Video

ID : 1

Format : AVC

Format/Info : Advanced Video Codec

Format profile : High@L4.1

Format settings, CABAC : Yes

Format settings, ReFrames : 4 frames

Codec ID : V_MPEG4/ISO/AVC

Duration : 1 h 58 min

Bit rate mode : Variable

Bit rate : 23.7 Mb/s

Maximum bit rate : 30.0 Mb/s

Width : 1 920 pixels

Height : 1 080 pixels

Display aspect ratio : 16:9

Frame rate mode : Constant

Frame rate : 23.976 (24000/1001) FPS

Color space : YUV

Chroma subsampling : 4:2:0

Bit depth : 8 bits

Scan type : Progressive

Bits/(Pixel*Frame) : 0.477

Stream size : 19.6 GiB (83%)

Language : English

Default : Yes

Forced : No

Audio #1

ID : 2

Format : AC-3

Format/Info : Audio Coding 3

Mode extension : CM (complete main)

Format settings, Endianness : Big

Codec ID : A_AC3

Duration : 1 h 58 min

Bit rate mode : Constant

Bit rate : 384 kb/s

Channel(s) : 6 channels

Channel positions : Front: L C R, Side: L R, LFE

Sampling rate : 48.0 kHz

Frame rate : 31.250 FPS (1536 spf)

Bit depth : 16 bits

Compression mode : Lossy

Stream size : 325 MiB (1%)

Title : iTunes

Language : Russian

Default : Yes

Forced : No

Audio #2

ID : 3

Format : Atmos / TrueHD

Codec ID : A_TRUEHD

Duration : 1 h 58 min

Bit rate mode : Variable

Bit rate : 4 326 kb/s

Maximum bit rate : 7 758 kb/s

Channel(s) : Object Based / 8 channels

Channel positions : Object Based / Front: L C R, Side: L R, Back: L R, LFE

Sampling rate : / 48.0 kHz

Frame rate : 1 200.000 FPS (40 spf)

Compression mode : Lossless

Stream size : 3.57 GiB (15%)

Title : Original

Language : English

Default : No

Forced : No

Text #1

ID : 4

Format : UTF-8

Codec ID : S_TEXT/UTF8

Codec ID/Info : UTF-8 Plain Text

Duration : 1 h 13 min

Bit rate : 0 b/s

Count of elements : 8

Stream size : 406 Bytes (0%)

Title : Forced [iTunes]

Language : Russian

Default : Yes

Forced : No

Text #2

ID : 5

Format : UTF-8

Codec ID : S_TEXT/UTF8

Codec ID/Info : UTF-8 Plain Text

Duration : 1 h 52 min

Bit rate : 79 b/s

Count of elements : 1277

Stream size : 65.5 KiB (0%)

Title : Full [iTunes]

Language : Russian

Default : No

Forced : No

Text #3

ID : 6

Format : UTF-8

Codec ID : S_TEXT/UTF8

Codec ID/Info : UTF-8 Plain Text

Duration : 1 h 51 min

Bit rate : 50 b/s

Count of elements : 1387

Stream size : 41.2 KiB (0%)

Title : Full

Language : English

Default : No

Forced : No

Menu

00:00:00.000 : en:00:00:00.000

00:07:00.629 : en:00:07:00.629

00:15:19.877 : en:00:15:19.877

00:20:33.858 : en:00:20:33.858

00:29:04.576 : en:00:29:04.576

00:34:35.740 : en:00:34:35.740

00:42:40.141 : en:00:42:40.141

00:49:28.007 : en:00:49:28.007

00:58:44.563 : en:00:58:44.563

01:03:10.161 : en:01:03:10.161

01:09:35.755 : en:01:09:35.755

01:15:05.334 : en:01:15:05.334

01:21:59.665 : en:01:21:59.665

01:27:07.222 : en:01:27:07.222

01:34:14.065 : en:01:34:14.065

01:46:44.857 : en:01:46:44.857

01:53:30.846 : en:01:53:30.846
скриншот  скриншот  скриншот  
Релиз от: Автор релиза: pb.wtf



Скачать Джек Ричер 2: Никогда не возвращайся через торрент http://s020.radikal.ru/i713/1701/02/d8a02c242d7d.jpg Скачать фильм Джек Ричер 2: Никогда не возвращайся через торрент бесплантно в хорошем качестве О фильме:Джек Ричер решил взять передышку и вернуться в родное 110-е подразделение военной полиции, где он когда-то был начальником. Тем ... 9.4 10 9
Info! Золотая раздача, скачанное не засчитывается.
Торрент: Зарегистрирован [2017-01-21 16:48] · скачан: 160 раз
Статус: √ проверено
Размер: 23.52 GB
Как cкачать? Как скачать Джек Ричер 2: Никогда не возвращайся через торрент | qTorrent

% Раздел Тема Автор DL S | L
Фильмы 2016 [DVDrip, WEB-DLRip, HDrip] (DUB, MVO) [ 1.41 GB ] Джек Ричер 2: Никогда не возвращайся / Jack Reacher: Never Go Back [2016 BDRip] - Twi7ter Скачать
2 | 0
Фильмы (WEB-DL 720p, 1080p) [ 4.43 GB ] Джек Ричер 2: Никогда не возвращайся / Jack Reacher: Never Go Back [2016 WEB-DL 1080p] - Ворон Скачать
3 | 0
R.G. Resident & PiratVoice - Фильмы, Видео [ 5.79 GB ] Джек Ричер 2: Никогда не возвращайся / Jack Reacher: Never Go Back [2016 BDRip 720p] - R.G.Resident schultz Скачать
1 | 0
Фильмы [HD 720p, 1080p] (Хороший звук DUB, MVO) [ 12.9 GB ] Джек Ричер 2: Никогда не возвращайся / Jack Reacher: Never Go Back [2016 BDRip 1080p] - sheker187 Скачать
1 | 0
Фильмы [HD 720p, 1080p] (Хороший звук DUB, MVO) [ 5.03 GB ] Джек Ричер 2: Никогда не возвращайся / Jack Reacher: Never Go Back [2016 BDRip 720p] - sheker187 Скачать
1 | 0

28-11-2019 20:33  

Отключить всю рекламу на сайте

25-01-2017 10:45 Джек Ричер 2: Никогда не возвращайся Скачать торрент  

Первый фильм и по игре актёров и по сценарию - одна из жемчужин американского кинематографа. Вторую же часть лучше бы не снимали вовсе: набор дешёвых штампов и полное отсутствия сюжетной линии.pb.wtf



19-02-2017 20:01 Джек Ричер 2: Никогда не возвращайся Скачать торрент  

Сойдёт. Хотя штампов куча как упоминали ранее.pb.wtf



    Дорогой пользователь! Огромная просьба, поблагодарите релизера, оцените раздачу и оставьте свои комментарий, если Вы скачали Джек Ричер 2: Никогда не возвращайся через торрент бесплатно! Внесите свою лепту в развитие PiratBit!
    Комментировать посты могут только пользователи прошедшие не сложную регистрацию
    Показать сообщения:    

    Джек Ричер 2: Никогда не возвращайся через торрент
    Скачать бесплатно Джек Ричер 2: Никогда не возвращайся
    Джек Ричер 2: Никогда не возвращайся скачать торрент
    Джек Ричер 2: Никогда не возвращайся смотреть онлайн
    Cкачать фильм Джек Ричер 2: Никогда не возвращайся бесплатно
    Джек Ричер 2: Никогда не возвращайся скачать торрент в хорошем качестве
    Джек Ричер 2: Никогда не возвращайся смотреть онлайн бесплатно в хорошем качестве


    Вы не можете начинать темы
    Вы не можете отвечать на сообщения
    Вы не можете редактировать свои сообщения
    Вы не можете удалять свои сообщения
    Вы не можете голосовать в опросах
    Вы не можете прикреплять файлы к сообщениям
    Вы можете скачивать файлы