Ссылка на приватное зеркало нашего сайта всего за 1$. Внимание количество ограничено!!!

2 сезон

iTunes

1 сезон

1

2 сезон

2 сезон

iTunes

1 сезон

RePack

30

Ultimate

ВАЖНО

ИГРА 18+

pack

RePack

MK11
pack

Забери бонус

RePack

jed

!!Акция!!

Alien_Rage

RePack

fifa19

RePack

Assassins Creed: Odyssey

RePack

NEED FOR SPEED™ PAYBACK

4 сезон

9 сезон

Бесстыжие 9 сезон

Все сериалы

все сериалы на PB.wtf

RePack

FAR CRY 5
  

Франц / Frantz (Франсуа Озон) [2016, Драма, мелодрама, артхаус, BDRemux 1080p] от ExKinoRay / iTunes pb.wtf

Франц через торрент pb.wtf

Размер: 25.45 GB | Добавлен: 3 года 10 мес. назад | Торрент скачан:9 раз
Скачать  

21-01-2017 19:42 Франц Скачать торрент  

Информация о фильме
Название: Франц
Оригинальное название: Frantz
Год выхода: 2016
Жанр: Драма, мелодрама, артхаус
Страна: Франция, Германия
Студия: Canal+, Centre National de la Cinématographie (CNC)
Продолжительность: 01:53:42
Перевод: Дублированный | iTunes

Режиссер: Франсуа Озон

В ролях: Пьер Нинэ, Паула Бир, Эрнст Штёцнер, Мария Грубер, Йохан фон Бюлов, Антон фон Люк, Сирил Клер, Элис де Ланкесэ, Аксель Вандтке, Райнер Эггер

О фильме:

Созерцательный и захватывающий эксперимент Франсуа Озон, выдержанный в чёрно-белых красках с вставкой цветных эпизодов для полного и эмоционального восприятия зрителем ужаса войны, трагизма потери и возможности обретения новой любви. О спасительной лжи во имя жизни, где пусть все будут спокойны, кроме знающих правду. В фильме больше пауз, чем слов, но оторваться искушённому зрителю невозможно.

rating

Качество: BDRemux 1080p
Формат: MKV
Видео: MPEG-4 AVC, 1920x1080, 27.8 Mbit/s, 24.000 fps
Аудио #01: 48 kHz, AC3, 5.1, 384 Kbps | Дублированный | iTunes |
Аудио #02: 48 kHz, DTS-HD MA, 5.1, 3840 kbps | Оригинал |
General

Unique ID : 219615962210444005565908000404915009136 (0xA5387EEC0149A6778BCAED008BB2B670)

Complete name : F:VideoFrantz.2016.BDREMUX.1080p.ExKinoRay.mkv

Format : Matroska

Format version : Version 4 / Version 2

File size : 25.5 GiB

Duration : 1 h 53 min

Overall bit rate mode : Variable

Overall bit rate : 32.1 Mb/s

Encoded date : UTC 2017-01-21 18:53:19

Writing application : mkvmerge v8.3.0 ('Over the Horizon') 64bit

Writing library : libebml v1.3.1 + libmatroska v1.4.2

Video

ID : 1

Format : AVC

Format/Info : Advanced Video Codec

Format profile : High@L4.1

Format settings, CABAC : Yes

Format settings, ReFrames : 4 frames

Codec ID : V_MPEG4/ISO/AVC

Duration : 1 h 53 min

Bit rate mode : Variable

Bit rate : 27.8 Mb/s

Maximum bit rate : 36.0 Mb/s

Width : 1 920 pixels

Height : 1 080 pixels

Display aspect ratio : 16:9

Frame rate mode : Constant

Frame rate : 24.000 FPS

Color space : YUV

Chroma subsampling : 4:2:0

Bit depth : 8 bits

Scan type : Progressive

Bits/(Pixel*Frame) : 0.559

Stream size : 22.1 GiB (87%)

Language : French

Default : Yes

Forced : No

Audio #1

ID : 2

Format : AC-3

Format/Info : Audio Coding 3

Mode extension : CM (complete main)

Format settings, Endianness : Big

Codec ID : A_AC3

Duration : 1 h 53 min

Bit rate mode : Constant

Bit rate : 384 kb/s

Channel(s) : 6 channels

Channel positions : Front: L C R, Side: L R, LFE

Sampling rate : 48.0 kHz

Frame rate : 31.250 FPS (1536 spf)

Bit depth : 16 bits

Compression mode : Lossy

Stream size : 312 MiB (1%)

Title : iTunes

Language : Russian

Default : Yes

Forced : No

Audio #2

ID : 3

Format : DTS

Format/Info : Digital Theater Systems

Format profile : MA / Core

Mode : 16

Format settings, Endianness : Big

Codec ID : A_DTS

Duration : 1 h 53 min

Bit rate mode : Variable / Constant

Bit rate : 3 840 kb/s / 1 509 kb/s

Channel(s) : 6 channels

Channel positions : Front: L C R, Side: L R, LFE

Sampling rate : 48.0 kHz

Frame rate : 93.750 FPS (512 spf)

Bit depth : 24 bits

Compression mode : Lossless / Lossy

Stream size : 3.05 GiB (12%)

Title : Original

Language : French

Default : No

Forced : No

Menu

00:00:00.000 : en:Chapter 1
скриншот  скриншот  скриншот  
Релиз от: Автор релиза: pb.wtf



Скачать Франц через торрент http://s010.radikal.ru/i312/1701/2b/1cd6e097dcd5.jpg Скачать фильм Франц через торрент бесплантно в хорошем качестве О фильме:Созерцательный и захватывающий эксперимент Франсуа Озон, выдержанный в чёрно-белых красках с вставкой цветных эпизодов для полного ... 10 10 3
Торрент: Зарегистрирован [2017-01-21 19:42] · скачан: 9 раз
Статус: √ проверено
Размер: 25.45 GB
Как cкачать? Как скачать Франц через торрент | qTorrent

28-11-2019 20:33  

Отключить всю рекламу на сайте

    Дорогой пользователь! Огромная просьба, поблагодарите релизера, оцените раздачу и оставьте свои комментарий, если Вы скачали Франц через торрент бесплатно! Внесите свою лепту в развитие PiratBit!
    Комментировать посты могут только пользователи прошедшие не сложную регистрацию
    Показать сообщения:    

    Франц через торрент
    Скачать бесплатно Франц
    Франц скачать торрент
    Франц смотреть онлайн
    Cкачать фильм Франц бесплатно
    Франц скачать торрент в хорошем качестве
    Франц смотреть онлайн бесплатно в хорошем качестве


    Вы не можете начинать темы
    Вы не можете отвечать на сообщения
    Вы не можете редактировать свои сообщения
    Вы не можете удалять свои сообщения
    Вы не можете голосовать в опросах
    Вы не можете прикреплять файлы к сообщениям
    Вы можете скачивать файлы